Мой создатель / Archive (2020) WEB-DLRip скачать торрент

Reply to topic

DL-List and Torrent activity [Update пиров]
Size:  1.45 GB   |    Registered:  9 days   |    Completed:  1 time

Seeder not seen: 1 day 18 hours

 
 
 
 
 
Author Message

Admin ®

Longevity: 4 years 3 months

Posts: 8289

Location: trackeroc.ru trackeroc.org trackeroc.info trackeroc.site


Post 25-Jul-2020 13:34

[Quote]

Информация о фильме
Название: Мой создатель
Оригинальное название: Archive
Год выпуска:: 2020
Жанр: Фантастика
Режиссер: Гэвин Ротери
В ролях: Рона Митра, Тео Джеймс, Тоби Джонс, Стэйси Мартин, Питер Фердинандо, Ричард Гловер, Ханс Петерсон, Джереми Вилер, Тимея Мадай Кинга
О фильме:
2046-ой год. Время невероятных технологических открытий, могущественных корпораций и торжества искусственного интеллекта. Молодой ученый, работающий на корпорацию в секретной лаборатории, занимается поиском секрета вечной жизни, попутно собирая робота, в которого собирается загрузить сознание погибшей жены. Когда объект перестает выходить на связь, корпорация отправляет туда команду зачистки.

Страна: Великобритания, Венгрия, США
Студия: Independent, Hero Squared, Head Gear Films
Продолжительность: 01:49:17
Перевод: Профессиональный (многоголосый, закадровый) | HDRezka Studio
Субтитры: Русские (Forced), английские (Full, SDH)
Файл
Формат: Matroska
Качество: WEB-DLRip-AVC | AMZN
Видео: 960x428 at 23.976 fps, [email protected], ~1452 kbps, 0.147 bpp
Аудио: AC3, 6 ch, ~448 kbps - | Русский | -
Формат субтитров: softsub (SRT)
***Релиз от: -=DoMiNo=-

M/I

x264 [info]: frame I:1162 Avg QP:15.80 size: 44577
x264 [info]: frame P:33419 Avg QP:19.09 size: 15653
x264 [info]: frame B:122638 Avg QP:20.56 size: 5005
x264 [info]: consecutive B-frames: 1.9% 2.4% 5.6% 23.9% 15.8% 37.2% 6.4% 3.5% 1.2% 0.9% 0.5% 0.3% 0.4%
General
Format : Matroska
Format version : Version 4
File size : 1.45 GiB
Duration : 1 h 49 min
Overall bit rate : 1 900 kb/s
Movie name : Мой создатель.(2020).WEB-DLRip-AVC.[-=DoMiNo=-]
Encoded date : UTC 2020-07-22 12:18:48
Writing application : mkvmerge v48.0.0 ('Fortress Around Your Heart') 64-bit
Writing library : libebml v1.4.0 + libmatroska v1.6.0
Cover : Yes
Attachments : Cover.jpg / Cover 2.jpg
Video
ID : 1
Format : AVC
Format/Info : Advanced Video Codec
Format profile : [email protected]
Format settings : CABAC / 12 Ref Frames
Format settings, CABAC : Yes
Format settings, Reference : 12 frames
Codec ID : V_MPEG4/ISO/AVC
Duration : 1 h 49 min
Bit rate : 1 452 kb/s
Width : 960 pixels
Height : 428 pixels
Display aspect ratio : 2.25:1
Frame rate mode : Constant
Frame rate : 23.976 (24000/1001) FPS
Color space : YUV
Chroma subsampling : 4:2:0
Bit depth : 8 bits
Scan type : Progressive
Bits/(Pixel*Frame) : 0.147
Stream size : 1.11 GiB (76%)
Title : -=DoMiNo=-
Writing library : x264 core 161 r3018 db0d417
Encoding settings : cabac=1 / ref=12 / deblock=1:-3:-3 / analyse=0x3:0x133 / me=umh / subme=10 / psy=1 / psy_rd=1.00:0.00 / mixed_ref=1 / me_range=32 / chroma_me=1 / trellis=2 / 8x8dct=1 / cqm=0 / deadzone=21,11 / fast_pskip=0 / chroma_qp_offset=-2 / threads=6 / lookahead_threads=1 / sliced_threads=0 / nr=0 / decimate=0 / interlaced=0 / bluray_compat=0 / constrained_intra=0 / bframes=12 / b_pyramid=2 / b_adapt=2 / b_bias=0 / direct=3 / weightb=1 / open_gop=0 / weightp=2 / keyint=250 / keyint_min=23 / scenecut=40 / intra_refresh=0 / rc_lookahead=60 / rc=2pass / mbtree=0 / bitrate=1452 / ratetol=1.0 / qcomp=0.60 / qpmin=0 / qpmax=69 / qpstep=4 / cplxblur=20.0 / qblur=0.5 / vbv_maxrate=50000 / vbv_bufsize=62500 / nal_hrd=none / filler=0 / ip_ratio=1.40 / pb_ratio=1.30 / aq=3:0.80
Language : English
Default : Yes
Forced : No
Color range : Limited
Color primaries : BT.709
Transfer characteristics : BT.709
Matrix coefficients : BT.709
Audio
ID : 2
Format : AC-3
Format/Info : Audio Coding 3
Commercial name : Dolby Digital
Codec ID : A_AC3
Duration : 1 h 49 min
Bit rate mode : Constant
Bit rate : 448 kb/s
Channel(s) : 6 channels
Channel layout : L R C LFE Ls Rs
Sampling rate : 48.0 kHz
Frame rate : 31.250 FPS (1536 SPF)
Compression mode : Lossy
Stream size : 350 MiB (24%)
Title : MVO_[HDRezka Studio]
Language : Russian
Service kind : Complete Main
Default : Yes
Forced : No
Text #1
ID : 3
Format : UTF-8
Codec ID : S_TEXT/UTF8
Codec ID/Info : UTF-8 Plain Text
Duration : 1 h 41 min
Bit rate : 3 b/s
Count of elements : 81
Stream size : 2.65 KiB (0%)
Title : FORCED
Language : Russian
Default : No
Forced : No
Text #2
ID : 4
Format : UTF-8
Codec ID : S_TEXT/UTF8
Codec ID/Info : UTF-8 Plain Text
Duration : 1 h 41 min
Bit rate : 42 b/s
Count of elements : 1068
Stream size : 31.4 KiB (0%)
Language : English
Default : No
Forced : No
Text #3
ID : 5
Format : UTF-8
Codec ID : S_TEXT/UTF8
Codec ID/Info : UTF-8 Plain Text
Duration : 1 h 41 min
Bit rate : 45 b/s
Count of elements : 1184
Stream size : 34.0 KiB (0%)
Title : SDH
Language : English
Default : No
Forced : No
Menu
00:00:00.000 : :Глава 01
00:05:30.000 : :Глава 02
00:11:00.000 : :Глава 03
00:16:30.000 : :Глава 04
00:22:00.000 : :Глава 05
00:27:30.000 : :Глава 06
00:33:00.000 : :Глава 07
00:38:30.000 : :Глава 08
00:44:00.000 : :Глава 09
00:49:30.000 : :Глава 10
00:55:00.000 : :Глава 11
01:00:30.000 : :Глава 12
01:06:00.000 : :Глава 13
01:11:30.000 : :Глава 14
01:17:00.000 : :Глава 15
01:22:30.000 : :Глава 16
01:28:00.000 : :Глава 17
01:33:30.000 : :Глава 18
01:39:00.000 : :Глава 19
01:44:30.000 : :Глава 20

Скриншоты



Смотреть онлайн


[trackeroc.info].19403.torrent 
Torrent: Registered   [ 2020-07-25 13:34 ]

Скачать торрент

59 KB

Status: checked
Completed: 13 times
Size: 1.45 GB
 

Similar torrent
Forum Topic Author Size
Квесты , я ищу , Поиск предметов Hidden Object Создатель Королей: Восхождение на трон / Kingmaker: Rise To The Throne [RUS / ENG] (2018) Admin 909 MB
[Profile] [PM]
Display posts from previous:    
Reply to topic

The time now is: Today 04:24

All times are GMT + 4 Hours



You cannot post new topics in this forum
You cannot reply to topics in this forum
You cannot edit your posts in this forum
You cannot delete your posts in this forum
You cannot vote in polls in this forum
You cannot attach files in this forum
You can download files in this forum