Звездные Войны: Войска Освобождения II / Star Wars: The Force Unleashed II (2010) WEBRip [H.264/1080p-LQ]

Ответить на тему

Статистика раздачи [Обновить пиров]
Размер:  1.46 GB   |    Зарегистрирован:  10 месяцев 14 дней   |    Скачан:  4 раза

Полного источника не было: 5 месяцев 27 дней

 
 
 
 
Автор Сообщение

BiOS ®

Стаж: 2 года 7 месяцев

Сообщений: 1223

Откуда: Raccoon City


Пост 21-Янв-2016 20:01

[Цитировать]

Звездные Войны: Войска Освобождения II / Star Wars: The Force Unleashed II - Производство: LucasArts
Жанр: Фантастика, Приключения, Игровое видео
Описание:
Продолжение истории о Старкиллере, ученике Дарта Вейдера, обманутом и предательски убитом в финале первой части игры. Благодаря технологиям клонирования Старкиллер возвращается к жизни, однако он лишен памяти. Теперь он отправляется в новое путешествие с единственной целью — вспомнить все!
Однако на пути к утерянным воспоминаниям Старкиллера ждет множество опасностей и, конечно, встреча со своим учителем, который так и не оставил надежды создать идеального воина-ситха.
Продолжительность: 00:50:07
Качество видео: WEBRip
Перевод: Многоголосый закадровый (КиНаТаН)
Язык субтитров: Русский
Вид субтитров: Вшитые (не отключаемые)
Видео: AVC/H.264, 1920х1080, ~3907 kbps
Аудио: AAC, 2 ch, 254 kbps, CBR

Mediainfo:

Код:
Формат : MPEG-4
Профиль формата : Base Media
Идентификатор кодека : isom
Размер файла : 1,46 Гбайт
Продолжительность : 50 м.
Общий поток : 4170 Кбит/сек
Программа кодирования : Lavf57.2.100
Видео
Идентификатор : 1
Формат : AVC
Формат/Информация : Advanced Video Codec
Профиль формата : High@L4.2
Параметр CABAC формата : Да
Параметр ReFrames формата : 3 кадра
Идентификатор кодека : avc1
Идентификатор кодека/Информация : Advanced Video Coding
Продолжительность : 50 м.
Битрейт : 3907 Кбит/сек
Ширина : 1920 пикселей
Высота : 1080 пикселей
Соотношение сторон : 16:9
Режим частоты кадров : Постоянный
Частота кадров : 50,000 кадров/сек
Цветовое пространство : YUV
Субдискретизация насыщенности : 4:2:0
Битовая глубина : 8 бит
Тип развёртки : Прогрессивная
Бит/(Пиксели*Кадры) : 0.038
Размер потока : 1,37 Гбайт (94%)
Аудио
Идентификатор : 2
Формат : AAC
Формат/Информация : Advanced Audio Codec
Профиль формата : LC
Идентификатор кодека : 40
Продолжительность : 50 м.
Вид битрейта : Постоянный
Битрейт : 254 Кбит/сек
Каналы : 2 канала
Расположение каналов : Front: L R
Частота : 44,1 КГц
Метод сжатия : С потерями
Размер потока : 90,9 Мбайт (6%)
-Скриншоты:


[trackeroc.ru].11145.torrent 
Торрент: Зарегистрирован   [ 2016-01-21 20:01 ]

Скачать торрент

15 KB

Статус: проверено
Скачан: 18 раз
Размер: 1.46 GB
 


Admin (21-янв-16)
Похожие торренты
Форум Тема Автор Размер
Комедии Соседи. На тропе войны 2 / Neighbors 2: Sorority Rising (2016) WEBRip Admin 1.37 GB
Игровое видео Звездные Войны: Войска Освобождения / Star Wars: The Force Unleashed (2009) WEBRip [H.264/1080p-LQ] BiOS 1.56 GB
Боевики Дорожные войны / Road Wars (2015) DVDRip Admin 931 MB
Зарубежные Мультсериалы Lego Звездные войны: Истории дроидов / Lego Star Wars: Droid Tales (2015) SATRip (сезон 1, серии 1-4 из 5) Admin 1.28 GB

_________________
[Профиль] [ЛС]

drojjj

Стаж: 1 год 10 месяцев

Сообщений: 4


Пост 21-Янв-2016 23:36 (спустя 3 часа)

[Цитировать]

кто нибудь саму игру видел*? 
[Профиль] [ЛС]

Admin

Стаж: 7 месяцев 10 дней

Сообщений: 4144

Откуда: trackeroc.ru


Пост 21-Янв-2016 23:44 (спустя 8 минут)

[Цитировать]

кто нибудь саму игру видел*?
http://trackeroc.ru/viewtopic.php?t=1071
http://trackeroc.ru/viewtopic.php?t=1070


_________________
[Профиль] [ЛС]
Показать сообщения:    
Ответить на тему

Текущее время: Сегодня 04:33

Часовой пояс: GMT + 4



Вы не можете начинать темы
Вы не можете отвечать на сообщения
Вы не можете редактировать свои сообщения
Вы не можете удалять свои сообщения
Вы не можете голосовать в опросах
Вы не можете прикреплять файлы к сообщениям
Вы можете скачивать файлы