Зло / Evil [сезон 1 серии 1-12 из 13] скачать торрент

Reply to topic

DL-List and Torrent activity [Update пиров]
Size:  6.49 GB   |    Registered:  8 days   |    Completed:  0 times

Seeder not seen: Never

 
 
 
 
 
Author Message

Admin ®

Longevity: 3 years 9 months

Posts: 7527

Location: trackeroc.ru


Post 11-Jan-2020 14:40

[Quote]

Информация о фильме
Название: Зло
Оригинальное название: Evil
Год выхода: 2019
Жанр: Драма
Режиссер: Роберт Кинг, Рон Андервуд
В ролях: Катя Херберс, Майк Колтер, Майкл Эмерсон, Аасиф Мандви, Бруклин Шак, Скайлар Грэй, Мэдди Крокко, Далия Напп, Ной Роббинс, Эвелин Джовине и другие.
О фильме:
В центре сюжета — психолог, специализирующийся на событиях, которые пресса квалифицирует как «чудо». Реально ли этим явлениям нет объяснения или их все-таки можно научно обосновать? Компанию скептически настроенной девушке составят (неожиданно) священник и мутноватого вида «синий воротничок». Они сошлись, лед и пламень, то есть холодное научное знание и мистика — чета Кинг предлагает включиться в очередную увлекательную борьбу противоположностей.

Страна: США
Студия: Sonar Entertainment, Temple Hill Entertainment
Продолжительность: ~ 00:43:00 серия
Перевод: Любительский (многоголосый закадровый) OmskBird
Файл
Кодек: XviD
Качество: WEBRip
Видео: 720x400, 24.000 fps, ~1590 kbps, 0.230 bit/pixel
Звук:
Аудио rus: AC3, 48 kHz, 2 ch, 192 Kbps | OmskBird
Субтитры: отсутствуют
Реклама: присутствует
Семпл

MediaInfo

Общее
Полное имя : G:Evil.S01.WEBRip.OmskBirdEvil.S01E01.WEBRip.OmskBird.avi
Формат : AVI
Формат/Информация : Audio Video Interleave
Размер файла : 576 Мбайт
Продолжительность : 45 м. 20 с.
Общий поток : 1776 Кбит/сек
Программа кодирования : Lavf57.71.100
Видео
Идентификатор : 0
Формат : MPEG-4 Visual
Профиль формата : [email protected]
Настройки формата : BVOP1
Параметр BVOP формата : 1
Параметр QPel формата : Нет
Параметр GMC формата : Без точки перехода
Параметр матрицы формата : Default (MPEG)
Идентификатор кодека : XVID
Идентификатор кодека/Подсказка : XviD
Продолжительность : 44 м. 53 с.
Битрейт : 1590 Кбит/сек
Ширина : 720 пикселей
Высота : 400 пикселей
Соотношение сторон : 16:9
Частота кадров : 24,000 кадра/сек
Цветовое пространство : YUV
Субдискретизация насыщенности : 4:2:0
Битовая глубина : 8 бит
Тип развёртки : Прогрессивная
Метод сжатия : С потерями
Бит/(Пиксели*Кадры) : 0.230
Размер потока : 510 Мбайт (89%)
Заголовок : Alias Data Handler
Библиотека кодирования : XviD 67
Аудио
Идентификатор : 1
Формат : AC-3
Формат/Информация : Audio Coding 3
Коммерческое название : Dolby Digital
Идентификатор кодека : 2000
Продолжительность : 45 м. 20 с.
Вид битрейта : Постоянный
Битрейт : 192 Кбит/сек
Каналы : 2 канала
ChannelLayout : L R
Частота : 48,0 КГц
Частота кадров : 31,250 кадров/сек (1536 SPF)
Битовая глубина : 16 бит
Метод сжатия : С потерями
Размер потока : 62,3 Мбайт (11%)
Выравнивание : Соединение по промежуткам
Продолжительность промежутка : 32 мс. (0,76 видеокадр)

Скриншоты

Внимание! Раздача ведётся путём добавления новых серий.

Внимание! Раздача ведётся путём добавления новых серий; при каждом добавлении создётся новый торрент. Чтобы начать докачку новой серии, пользователям необходимо сделать следующее:
Остановить скачивание.
Удалить старый торрент у себя из клиента (старые серии удалять не надо).
Скачать новый торрент и запустить его у себя в клиенте вместо старого, при этом указать клиенту путь в старую папку куда и должно происходить скачивание новых серий.
Ваш клиент при этом должен произвести хеширование (проверку) старой папки (если не производит сам - помогите ему сделать это), и будет докачивать только те серии которых у вас ещё нет. Старые серии при этом не удаляются, а продолжают раздаваться!
Eсли вы уже удалили старые серии, то предотвратить повторную закачку старых серий можно, отжав галочку в соответсвующих местах при запуске нового торрента. По возможности, желательно не удалять старые серии как можно дольше чтобы релизёр не столько продолжал раздавать старые серии, а смог сконцентрироваться на новых.


Смотреть онлайн


[trackeroc.info].18528.torrent 
Torrent: Registered   [ 2020-01-19 16:48 ]

Скачать торрент

18 KB

Status: * not checked
Completed: 3 times
Size: 6.49 GB
 

Similar torrent
Forum Topic Author Size
Квесты , я ищу , Поиск предметов Hidden Object Halloween Chronicles 2: Evil Behind a Mask / Хэллоуин. Зло под маской [RUS / ENG] (2019) Admin 1.19 GB
Квесты , я ищу , Поиск предметов Hidden Object Halloween Chronicles 2: Evil Behind a Mask [ENG / ENG] (2019) Admin 1.18 GB
Сasual games, Тайм менеджмент Отважные спасатели 9 Злостный гений / Rescue Team 9 Evil Genius [RUS] (2019) Admin 472 MB
Strategy Стратегии Mutant Year Zero: Road to Eden - Seed of Evil (2018) (RUS|ENG|MULTi11) Admin 7.78 GB

_________________
[Profile] [PM]
Display posts from previous:    
Reply to topic

The time now is: Today 13:39

All times are GMT + 4 Hours



You cannot post new topics in this forum
You cannot reply to topics in this forum
You cannot edit your posts in this forum
You cannot delete your posts in this forum
You cannot vote in polls in this forum
You cannot attach files in this forum
You can download files in this forum