Утиные Истории / DuckTales (2017) WEB-DL [H.264/1080p-LQ] (сезон 1, серии 1-25 из 25) Невафильм скачать торрент

Reply to topic

DL-List and Torrent activity [Update пиров]
Size:  19.86 GB   |    Registered:  5 months 5 days   |    Completed:  0 times

Seeder not seen: 2 months 27 days

 
 
 
 
 
Author Message

BiOS ®

Longevity: 5 years

Posts: 1200

Location: Raccoon City


Post 14-Nov-2018 03:55

[Quote]

Утиные Истории / DuckTales - Производство: США / Disney Television Animation
Жанр: мультфильм, комедия, приключения, семейный
Режиссер: Дэна Террас, Джон Аошима, Том Оуэнс
Актеры: Дэвид Теннант — Скрудж Макдак, Тони Ансельмо — Дональд Дак, Дэнни Пуди — Билли (Хьюи), Бен Шварц — Вилли (Дьюи), Бобби Мойнахан — Дилли (Луи) и др.
Описание:
Билли, Вилли и Дилли — три брата, которые обожают приключения. Их дядюшка, Дональд Дак, вынужден отправиться на важное собеседование, поэтому он нанял няню, чтобы она присмотрела за неусидчивыми сорванцами. Вот только женщина не смогла прибыть вовремя, поэтому у Дональда не осталось другого выбора, как отвести племянников к Скруджу МакДаку, самому богатому селезню в мире. Братья и мечтать не могли, что окажутся в доме известного искателя приключений, о котором ходят легенды. Вот только Скрудж МакДак уже не тот, каким был прежде, и его подвиги остались в далеком прошлом. Правда с появлением внучатых племянников все меняется, и впереди всех ждут невероятные и очень опасные приключения...
Продолжительность: ~ 00:22:00 серия
Качество видео: WEB-DL
Перевод: Дублированный, профессиональный - Невафильм
Видео: AVC/H.264, 1920x1080 (16:9), ~4 378 kbps
Аудио Rus: AC3, 48,0 kHz, 2 ch, 192 kbps - дублированный
Аудио Eng: E-AC3, 48,0 kHz, 6 ch, 640 kbps - оригинал

MediaInfo

General
Format : Matroska
Format version : Version 4 / Version 2
File size : 1.60 GiB
Duration : 44 min 3 s
Overall bit rate mode : Variable
Overall bit rate : 5 212 kb/s
Encoded date : UTC 2017-12-06 04:56:42
Writing application : mkvmerge v18.0.0 ('Apricity') 64-bit
Writing library : libebml v1.3.5 + libmatroska v1.4.8
Video
ID : 1
Format : AVC
Format/Info : Advanced Video Codec
Format profile : High@L4
Format settings : CABAC / 4 Ref Frames
Format settings, CABAC : Yes
Format settings, ReFrames : 4 frames
Codec ID : V_MPEG4/ISO/AVC
Duration : 44 min 3 s
Bit rate mode : Variable
Bit rate : 4 378 kb/s
Maximum bit rate : 15.0 Mb/s
Width : 1 920 pixels
Height : 1 080 pixels
Display aspect ratio : 16:9
Frame rate mode : Constant
Frame rate : 23.976 (24000/1001) FPS
Color space : YUV
Chroma subsampling : 4:2:0
Bit depth : 8 bits
Scan type : Progressive
Bits/(Pixel*Frame) : 0.088
Stream size : 1.35 GiB (84%)
Default : Yes
Forced : No
Color range : Limited
Color primaries : BT.709
Transfer characteristics : BT.709
Matrix coefficients : BT.709
Audio #1
ID : 2
Format : AC-3
Format/Info : Audio Coding 3
Codec ID : A_AC3
Duration : 44 min 3 s
Bit rate mode : Constant
Bit rate : 192 kb/s
Channel(s) : 2 channels
Channel positions : Front: L R
Sampling rate : 48.0 kHz
Frame rate : 31.250 FPS (1536 SPF)
Bit depth : 16 bits
Compression mode : Lossy
Stream size : 60.5 MiB (4%)
Language : Russian
Service kind : Complete Main
Default : Yes
Forced : No
Audio #2
ID : 3
Format : E-AC-3
Format/Info : Enhanced Audio Coding 3
Codec ID : A_EAC3
Duration : 44 min 3 s
Bit rate mode : Constant
Bit rate : 640 kb/s
Channel(s) : 6 channels
Channel positions : Front: L C R, Side: L R, LFE
Sampling rate : 48.0 kHz
Frame rate : 187.500 FPS (256 SPF)
Compression mode : Lossy
Stream size : 202 MiB (12%)
Language : English
Service kind : Complete Main
Default : No
Forced : No

Список серий

01-02. Woo-oo! (Навстречу приключениям) [~44 минуты]
03. Daytrip of Doom (Злосчастная экскурсия)
04. The Great Dime Chase! (Погоня за заветной монеткой)
05. The Beagle Birthday Massacre! (День рождения в духе Гавсов)
06. Terror of the Terra-Firmians (Страшные Терра-Фирмиане)
07. The House of the Lucky Gander! (Дом везучего Гусака)
08. The Infernal Internship of Mark Beaks! (Жуткая стажировка у Марка Клювса!)
09. The Living Mummies of Toth-Ra! (Живые мумии Тота-Ра)
10. The Impossible Summit of Mt. Neverrest (Непокорная вершина Невереста)
11. The Spear of Selene! (Копьё Селены)
12. Beware the B.U.D.D.Y. System! (Остерегайтесь системы М.О.Д.У.С.)
13. The Missing Links of Moorshire! (Недостающие звенья Муршира)
14. McMystery at McDuck McManor! (МакТайна МакПоместья МакДака)
15. Jaw$! (Челю$ти)
16. The Golden Lagoon of White Agony Plains! (Золотая Лагуна Равнин Белой Агонии)
17. Day of the Only Child! (День единственного ребенка)
18. From the Confidential Case Files of Agent 22! (Из конфиденциальных файлов агента 22)
19. Who is Gizmoduck?! (Кто такой Уткоробот?!)
20. The Other Bin of Scrooge McDuck! (Другое Хранилище Скруджа Макдака)
21. Sky Pirates...In the Sky! (Воздушные Пираты... В Небе)
22. The Secret(s) of Castle McDuck! (Секреты Замка МакДак)
23. The Last Crash of the Sunchaser! (Последняя авария Метеора)
24-25. The Shadow War! (Война Теней)
-Скриншоты:


Смотреть онлайн


[trackeroc.ru].16396.torrent 
Torrent: Registered   [ 2018-11-14 03:55 ]

Скачать торрент

103 KB

Status: checked
Completed: 7 times
Size: 19.86 GB
 

Admin (14-ноя-18)
Similar torrent
Forum Topic Author Size
Квесты , я ищу , Поиск предметов Hidden Object Dark Tales 15: Edgar Allan Poes. Speaking with the Dead. / Тёмные истории 15: Эдгар Аллан По. Говорящий с мёртвыми. [RUS / ENG] (2019) Admin 804 MB
RPG ролевые игры Thronebreaker: The Witcher Tales / Кровная вражда: Ведьмак. Истории v1.1 (2018) (RUS|ENG) RePack от xatab Admin 5.86 GB
Зарубежные Мультсериалы Шахерезада. Нерассказанные истории / Sherazade: The Untold Stories (2018-2019) (сезон 1, серии 1-24 из 26) Admin 10.21 GB
Квесты , я ищу , Поиск предметов Hidden Object Dreadful Tales: The Space Between / Жуткие истории: Кто таится между стен [RUS / ENG] (2019) Admin 633 MB
Квесты , я ищу , Поиск предметов Hidden Object The Christmas Spirit 2: Mother Gooses Untold Tales / Дух Рождества 2: Нерассказанные истории матушки Гусыни [RUS / ENG] (2018) Admin 1.85 GB

_________________
[Profile] [PM]
Display posts from previous:    
Reply to topic

The time now is: Today 12:17

All times are GMT + 4 Hours



You cannot post new topics in this forum
You cannot reply to topics in this forum
You cannot edit your posts in this forum
You cannot delete your posts in this forum
You cannot vote in polls in this forum
You cannot attach files in this forum
You can download files in this forum