Титаны / Titans (2018) WEB-DLRip [H.264/1080p-LQ] (сезон 1, серии 1-11 из 11) LostFilm скачать торрент

Ответить на тему

Статистика раздачи [Обновить пиров]
Размер:  26.75 GB   |    Зарегистрирован:  27 дней   |    Скачан:  0 раз

Полного источника не было: Никогда

 
 
 
 
 
Автор Сообщение

BiOS ®

Стаж: 4 года 9 месяцев

Сообщений: 1204

Откуда: Raccoon City


Пост 24-Окт-2018 14:33

[Цитировать]

Титаны / Titans - Производство: США / Berlanti Productions, DC Entertainment, Warner Bros. Television
Жанр: фантастика, фэнтези, боевик, драма, приключения
Режиссер: Брэд Андерсон, Джон Фоусет, Грант Харви
Актеры: Брентон Туэйтс, Анна Диоп, Тиган Крофт, Райан Поттер, Линдси Горт, Шеймус Девер, Минка Келли, Алан Ричсон, Каррен Уолтерс, Бруно Бичир и др.
Описание:
В надежде остановить своего отца — древнего демона Тригона — обладательница невероятных способностей девушка Рэйвен обращается за помощью к Робину. Бывший напарник Бэтмена теперь сам вершит правосудие на улицах Готэма, но, чтобы остановить зло, Рэйвен и Робину понадобится подмога.

Дата мировой премьеры: 7 октября 2018
Продолжительность: ~00:45:00 серия
Качество видео: WEB-DLRip
Перевод: Многоголосый закадровый, профессиональный (LostFilm)
Реклама: присутствуют заставка и логотип LostFilm
Видео: AVC/H.264, 1920x1080 (16:9), ~6800 Kbps
Аудио #1: AC-3, 2 ch, 384 Kbps, CBR | русский, многоголосый закадровый
Аудио #2: AC-3, 2 ch, 384 Kbps, CBR | английский

Mediainfo:

Общее
Формат : Matroska
Версия формата : Version 4
Размер файла : 2,69 Гбайт
Продолжительность : 50 м. 51 с.
Общий поток : 7568 Кбит/сек
Дата кодирования : UTC 2018-10-15 13:43:12
Программа кодирования : mkvmerge v9.5.0 ('Quiet Fire') 64bit
Библиотека кодирования : libebml v1.3.4 + libmatroska v1.4.5
Видео
Идентификатор : 1
Формат : AVC
Формат/Информация : Advanced Video Codec
Профиль формата : High@L4.1
Настройки формата : CABAC / 4 Ref Frames
Параметр CABAC формата : Да
Параметр RefFrames формата : 4 кадра
Идентификатор кодека : V_MPEG4/ISO/AVC
Продолжительность : 50 м. 51 с.
Битрейт : 6800 Кбит/сек
Ширина : 1920 пикселей
Высота : 1080 пикселей
Соотношение сторон : 16:9
Соотношение сторон в оригинале : 16:9
Режим частоты кадров : Постоянный
Частота кадров : 23,976 (24000/1001) кадра/сек
Частота кадров в оригинале : 23,976 (23976/1000) кадра/сек
Цветовое пространство : YUV
Субдискретизация насыщенности : 4:2:0
Битовая глубина : 8 бит
Тип развёртки : Прогрессивная
Бит/(Пиксели*Кадры) : 0.137
Размер потока : 2,41 Гбайт (90%)
Библиотека кодирования : x264 core 112 r1834 a51816a
Настройки программы : cabac=1 / ref=4 / deblock=1:-3:-2 / analyse=0x3:0x113 / me=hex / subme=7 / psy=1 / psy_rd=1.00:0.00 / mixed_ref=1 / me_range=16 / chroma_me=1 / trellis=1 / 8x8dct=1 / cqm=0 / deadzone=21,11 / fast_pskip=1 / chroma_qp_offset=-2 / threads=6 / sliced_threads=0 / nr=0 / decimate=1 / interlaced=0 / constrained_intra=0 / bframes=5 / b_pyramid=2 / b_adapt=1 / b_bias=0 / direct=1 / weightb=1 / open_gop=0 / weightp=2 / keyint=250 / keyint_min=25 / scenecut=40 / intra_refresh=0 / rc_lookahead=40 / rc=2pass / mbtree=1 / bitrate=6800 / ratetol=1.0 / qcomp=0.60 / qpmin=0 / qpmax=51 / qpstep=4 / cplxblur=20.0 / qblur=0.5 / vbv_maxrate=10000 / vbv_bufsize=256000 / ip_ratio=1.40 / aq=1:1.00 / nal_hrd=none
Default : Да
Forced : Нет
Аудио #1
Идентификатор : 2
Формат : AC-3
Формат/Информация : Audio Coding 3
Коммерческое название : Dolby Digital
Идентификатор кодека : A_AC3
Продолжительность : 50 м. 51 с.
Вид битрейта : Постоянный
Битрейт : 384 Кбит/сек
Каналы : 2 канала
Channel layout : L R
Частота : 48,0 КГц
Частота кадров : 31,250 кадров/сек (1536 SPF)
Битовая глубина : 16 бит
Метод сжатия : С потерями
Размер потока : 140 Мбайт (5%)
ServiceKind/String : Complete Main
Default : Да
Forced : Нет
Аудио #2
Идентификатор : 3
Формат : AC-3
Формат/Информация : Audio Coding 3
Коммерческое название : Dolby Digital
Идентификатор кодека : A_AC3
Продолжительность : 50 м. 51 с.
Вид битрейта : Постоянный
Битрейт : 384 Кбит/сек
Каналы : 2 канала
Channel layout : L R
Частота : 48,0 КГц
Частота кадров : 31,250 кадров/сек (1536 SPF)
Битовая глубина : 16 бит
Метод сжатия : С потерями
Размер потока : 140 Мбайт (5%)
ServiceKind/String : Complete Main
Default : Нет
Forced : Нет
-Скриншоты:


Смотреть онлайн

[trackeroc.ru].16209.torrent 
Торрент: Зарегистрирован   [ 2018-12-24 12:04 ]

Скачать торрент

68 KB

Статус: проверено
Скачан: 9 раз
Размер: 26.75 GB
 

Admin (24-окт-18)
Похожие торренты
Форум Тема Автор Размер
Зарубежные сериалы Титаны / Titans [сезон 1 серии 1-11 из 11] (2018) Admin 3.83 GB
Инди игры Revenge of the Titans v16.12.2015 (2015) (ENG) (RUS) (DEU) savengunner 89 MB
Cимуляторы Starpoint Gemini 2: Titans (2015) [1.9.0.0.0][RUS][ENG][MULTI5][L] bu SKIDROW max+100600 5.29 GB
Arcade , Аркады , Платформеры Funk of Titans (2015) (ENG) RePack Admin 468 MB

_________________
[Профиль] [ЛС]
Показать сообщения:    
Ответить на тему

Текущее время: Сегодня 03:50

Часовой пояс: GMT + 4



Вы не можете начинать темы
Вы не можете отвечать на сообщения
Вы не можете редактировать свои сообщения
Вы не можете удалять свои сообщения
Вы не можете голосовать в опросах
Вы не можете прикреплять файлы к сообщениям
Вы можете скачивать файлы