Супергёрл / Supergirl [S01-04] (2015-2019) WEB-DLRip скачать торрент

Reply to topic

DL-List and Torrent activity [Update пиров]
Size:  16.44 GB   |    Registered:  1 month   |    Completed:  0 times

Seeder not seen: Never

Leechers:  2  [  0 KB/s  ]   Show peers in full details
 
 
 
 
 
Author Message

Admin ®

Longevity: 3 years 4 months

Posts: 7134

Location: trackeroc.ru


Post 19-Aug-2019 15:30

[Quote]

Информация о фильме
Название: Супергёрл
Оригинальное название: Supergirl
Год выхода: 2015
Жанр: Фантастика
Режиссер: Дермотт Даунс, Глен Уинтер
В ролях: Мелисса Бенойст, Мехкад Брукс, Кайлер Ли, Джереми Джордан, Дэвид Хэрвуд, Калиста Флокхарт, Бриана Венскус, Малина Вайсман, Питер Фачинелли, Джей Джексон
О фильме:
Когда Криптон, родная планета 12-летней Кары Зор-Эл (Малина Вайсман), была близка к разрушению, родители отправили свою дочь вслед за ее двоюродным братом Кал-Элом на Землю, чтобы она могла выжить и заодно защитить его от опасностей. Однако из-за взрывной волны корабль Кары попал в фантомную зону и прибыл на место назначения, когда Кал уже вырос, превратился в Супермена и перестал нуждаться в ее опеке. Много лет Кара жила в мире людей, вынужденная подавлять свою суперсилу и скрывать истинную сущность, прозябая в тени легендарного брата. Повзрослев и став красивой, умной женщиной, она устроилась на работу, где изо дня в день занимается тем, что разносит кофе и документы. Такая рутина не подходит Каре — она чувствует, что губит свой потенциал. Но все меняется, когда девушка проявляет свои неординарные способности, спасая от неминуемого крушения самолет, на борту которого находилась и ее сводная сестра Алекс (Кайлер Ли). Прозванная газетчиками "Супергёрл", Кара загорается желанием защищать жителей города от преступности. Теперь ее ждут невероятные приключения, которые принесут девушке не меньшую славу, чем у самого Человека из стали. Однако столь желанная жизнь таит в себе и множество смертельных опасностей, ведь за хрупкой представительницей дома Эл охотятся самые свирепые головорезы Вселенной...

Страна: США
Студия: Warner Bros. Television, Berlanti Productions
Продолжительность: 87 х ~ 00:42:00
Перевод: Профессиональный (многоголосый, закадровый) [LostFilm]
Файл
Формат: MP4
Качество: WEB-DLRip | КПК
Видео: MPEG-4 AVC (x264), 640x360, ~500 kbps, 23.976 fps
Аудио: AAC LC, 48.0 KHz, 2 ch, 128 Kbps
Субтитры: Нет
Семпл

Скриншоты

MI

Complete name : E:KinoSupertyolka.AVC.KPK.GFSupertyolka.S02.2016-2017.AVC.WEB-DLRip.KPK.LF.GFSupertyolka.s02e16.2016.AVC.WEB-DLRip.KPK.LF.GF.mp4
Format : MPEG-4
Codec ID : M4V (isom/iso2/avc1)
File size : 193 MiB
Duration : 42 min 32 s
Overall bit rate mode : Variable
Overall bit rate : 634 kb/s
Writing application : Lavf53.19.0
Video
ID : 1
Format : AVC
Format/Info : Advanced Video Codec
Format profile : [email protected]
Format settings, CABAC : Yes
Format settings, ReFrames : 8 frames
Codec ID : avc1
Codec ID/Info : Advanced Video Coding
Duration : 42 min 31 s
Source duration : 13 min 53 s
Bit rate : 500 kb/s
Width : 640 pixels
Height : 360 pixels
Display aspect ratio : 16:9
Frame rate mode : Constant
Frame rate : 23.976 FPS
Color space : YUV
Chroma subsampling : 4:2:0
Bit depth : 8 bits
Scan type : Progressive
Bits/(Pixel*Frame) : 0.091
Stream size : 152 MiB (79%)
Source stream size : 152 MiB (79%)
Writing library : x264 core 146 r2538 121396c
Encoding settings : cabac=1 / ref=8 / deblock=1:-2:-2 / analyse=0x3:0x133 / me=umh / subme=10 / psy=1 / psy_rd=1.00:0.00 / mixed_ref=1 / me_range=24 / chroma_me=1 / trellis=2 / 8x8dct=1 / cqm=0 / deadzone=21,11 / fast_pskip=1 / chroma_qp_offset=-2 / threads=12 / lookahead_threads=2 / sliced_threads=0 / nr=0 / decimate=0 / interlaced=0 / bluray_compat=0 / constrained_intra=0 / bframes=8 / b_pyramid=2 / b_adapt=2 / b_bias=0 / direct=3 / weightb=1 / open_gop=0 / weightp=2 / keyint=240 / keyint_min=121 / scenecut=40 / intra_refresh=0 / rc_lookahead=40 / rc=2pass / mbtree=1 / bitrate=500 / ratetol=1.0 / qcomp=0.60 / qpmin=0 / qpmax=69 / qpstep=4 / cplxblur=20.0 / qblur=0.5 / ip_ratio=1.40 / aq=1:1.00
Menus : 3
mdhd_Duration : 2551929
Audio
ID : 2
Format : AAC
Format/Info : Advanced Audio Codec
Format profile : LC
Codec ID : 40
Duration : 42 min 32 s
Bit rate mode : Variable
Bit rate : 128 kb/s
Channel(s) : 2 channels
Channel positions : Front: L R
Sampling rate : 48.0 kHz
Frame rate : 46.875 FPS (1024 spf)
Compression mode : Lossy
Stream size : 38.9 MiB (20%)
Default : Yes
Alternate group : 1
Menus : 3


Смотреть онлайн


[trackeroc.info].17971.torrent 
Torrent: Registered   [ 2019-08-19 15:30 ]

Скачать торрент

53 KB

Status: checked
Completed: 5 times
Size: 16.44 GB
 

Similar torrent
Forum Topic Author Size
Зарубежные сериалы Супергёрл / Supergirl [S04] (2018) WEBRip Admin 11.7 GB

_________________
[Profile] [PM]
Display posts from previous:    
Reply to topic

The time now is: Today 21:34

All times are GMT + 4 Hours



You cannot post new topics in this forum
You cannot reply to topics in this forum
You cannot edit your posts in this forum
You cannot delete your posts in this forum
You cannot vote in polls in this forum
You cannot attach files in this forum
You can download files in this forum