Снегопад / Snowfall / Сезон: 3 / Серии: 1-10 из 10 скачать торрент

Reply to topic

DL-List and Torrent activity [Update пиров]
Size:  7.46 GB   |    Registered:  28 days   |    Completed:  0 times

Seeder not seen: Never

Leechers:  1  [  0 KB/s  ]   Show peers in full details
 
 
 
 
 
Author Message

Admin ®

Longevity: 3 years 5 months

Posts: 7220

Location: trackeroc.ru


Post 19-Aug-2019 08:49

[Quote]

Снегопад | Snowfall- Год выпуска: 2019
Страна: США
Жанр: драма, криминал
Продолжительность: ~ 00:50:00
Перевод: Профессиональный (многоголосый закадровый) TVShows--Режиссёр: Дэниэл Эттиэс, Майкл Леманн, Джон Синглтон
В ролях: Айзиа Джон, Демсон Идрис, Картер Хадсон, Серхио Перис-Менчета, Эймин Джозеф, Эмили Риос, Анджела Льюис, Филипе Валле Коста, Майкл Хайатт, Малкольм М. Мейс и др.-Описание: Сериал о начале кокаиновой эпидемии в Лос-Анджелесе начала 1980-х, когда на улицах Америки появился дешёвый крэк из Доминиканы, и страну захлестнул неконтролируемый рост преступности. События увидены глазами трёх главных героев: уличного торговца Джерома, гангстера Густаво и Леона, парня из благопристойного семейства.-
Качество: WEB-DLRip
Формат: AVI
Видео: XVID, 720x400, 23.976 fps, ~2000 kbps avg, ~0.29 bit/pixel
Аудио Rus: AC3, 48.0 KHz, 6 channels, 384 kbps
Субтитры: нет

MediaInfo

General
Complete name : G:\Снегопад (Сезон 3) TVShows\Snowfall.S03E01.WEB-DLRip.RGzsRutracker.Celta88.avi
Format : AVI
Format/Info : Audio Video Interleave
File size : 845 MiB
Duration : 49 min 23 s
Overall bit rate : 2 392 kb/s
Writing application : VirtualDubMod 1.5.10.2 (build 2540/release)
Writing library : VirtualDubMod build 2540/release
Video
ID : 0
Format : MPEG-4 Visual
Format profile : Advanced [email protected]
Format settings, BVOP : 1
Format settings, QPel : No
Format settings, GMC : No warppoints
Format settings, Matrix : Custom
Codec ID : XVID
Codec ID/Hint : XviD
Duration : 49 min 23 s
Bit rate : 1 999 kb/s
Width : 720 pixels
Height : 400 pixels
Display aspect ratio : 16:9
Frame rate : 23.976 (24000/1001) FPS
Color space : YUV
Chroma subsampling : 4:2:0
Bit depth : 8 bits
Scan type : Progressive
Compression mode : Lossy
Bits/(Pixel*Frame) : 0.289
Stream size : 706 MiB (84%)
Writing library : XviD 73
Audio
ID : 1
Format : AC-3
Format/Info : Audio Coding 3
Mode extension : CM (complete main)
Format settings, Endianness : Big
Codec ID : 2000
Duration : 49 min 23 s
Bit rate mode : Constant
Bit rate : 384 kb/s
Channel(s) : 6 channels
Channel positions : Front: L C R, Side: L R, LFE
Sampling rate : 48.0 kHz
Frame rate : 31.250 FPS (1536 spf)
Bit depth : 16 bits
Compression mode : Lossy
Delay relative to video : 4 ms
Stream size : 136 MiB (16%)
Alignment : Split accross interleaves
Interleave, duration : 42 ms (1.00 video frame)
Interleave, preload duratio : 500 ms

Скриншоты

Внимание! Раздача ведётся путём добавления новых серий!

Внимание! Раздача ведётся путём добавления новых серий; при каждом добавлении создаётся новый торрент.
Чтобы начать докачку новой серии, пользователям необходимо сделать следующее:
1. Остановить скачивание.
2. Удалить старый торрент у себя из клиента (старые серии удалять не надо).
3. Скачать новый торрент и запустить его у себя в клиенте вместо старого, при этом указать клиенту путь в старую папку куда и должно происходить скачивание новых серий.
Ваш клиент при этом должен произвести хеширование (проверку) старой папки (если не производит сам - помогите ему сделать это), и будет докачивать только те серии которых у вас ещё нет. Старые серии при этом не удаляются, а продолжают раздаваться!
Eсли вы уже удалили старые серии, то предотвратить повторную закачку старых серий можно, отжав галочку в соответствующих местах при запуске нового торрента.


Смотреть онлайн


[trackeroc.info].17969.torrent 
Torrent: Registered   [ 2019-09-16 16:55 ]

Скачать торрент

39 KB

Status: checked
Completed: 6 times
Size: 7.46 GB
 

Similar torrent
Forum Topic Author Size
Зарубежные сериалы Снегопад / Snowfall [сезон 2 серии 1-10 из 10] (2018) Admin 5.44 GB
Strategy Стратегии Cities: Skylines + Snowfall DLC (2015) [RUS|ENG] RePack от xatab BiOS 1.9 GB

_________________
[Profile] [PM]
Display posts from previous:    
Reply to topic

The time now is: Today 20:56

All times are GMT + 4 Hours



You cannot post new topics in this forum
You cannot reply to topics in this forum
You cannot edit your posts in this forum
You cannot delete your posts in this forum
You cannot vote in polls in this forum
You cannot attach files in this forum
You can download files in this forum