Парад Победы 1945 года, Москва (2011.05.09) IPTVRip (В ЦВЕТЕ)

Ответить на тему

Статистика раздачи [Обновить пиров]
Размер:  200 MB   |    Зарегистрирован:  6 месяцев 30 дней   |    Скачан:  0 раз
Сидов:  1  [  0 KB/s  ]   Подробная статистика пиров
   
 
Автор Сообщение

BiOS ®

Стаж: 2 года 7 месяцев

Сообщений: 1222

Откуда: Raccoon City


Пост 09-Май-2016 11:12

[Цитировать]

Парад Победы 1945 года, Москва - Жанр: Документальный, военный парад
Описание:
9 мая 2011 года к 66-й годовщине победы в Великой Отечественной войне 1941-1945 гг. канал СТС подготовил парад победы 1945 года [В цвете]. 24 июня 1945 года в Москве на Красной площади в ознаменование победы над фашистской Германией в Великой Отечественной войне состоялся Парад Победы. В параде принимали участия сводные полки фронтов, слушатели военных академий, курсанты военных училищ и войска Московского гарнизона. В ходе парада к подножию мавзолея Ленина были брошены знамёна и штандарты разбитых гитлеровских дивизий.
Продолжительность: 00:18:16
Качество видео: IPTVRip
Субтитры: Отсутствуют
Видео: Xvid, 704x520, ~1388 kb/s
Аудио: MP3, 2 ch, 128 kb/s

Mediainfo:

Код:
Общее
Полное имя : C:\Parad.pobedy.1945.IPTVRip.STS.avi
Формат : AVI
Формат/Информация : Audio Video Interleave
Размер файла : 200 Мбайт
Продолжительность : 18 м.
Общий поток : 1526 Кбит/сек
Программа кодирования : VirtualDubMod 1.5.10.2 (build 2540/release)
Библиотека кодирования : VirtualDubMod build 2540/release
Видео
Идентификатор : 0
Формат : MPEG-4 Visual
Профиль формата : Advanced Simple@L5
Параметр BVOP формата : 2
Параметр QPel формата : Да
Параметр GMC формата : 3 точки перехода
Параметр матрицы формата : Default (MPEG)
Идентификатор кодека : XVID
Идентификатор кодека/Подсказка : XviD
Продолжительность : 18 м.
Битрейт : 1329 Кбит/сек
Ширина : 704 пикселя
Высота : 520 пикселей
Соотношение сторон : 4:3
Частота кадров : 25,000 кадров/сек
Цветовое пространство : YUV
Субдискретизация насыщенности : 4:2:0
Битовая глубина : 8 бит
Тип развёртки : Прогрессивная
Метод сжатия : С потерями
Бит/(Пиксели*Кадры) : 0.145
Размер потока : 174 Мбайт (87%)
Библиотека кодирования : XviD 1.2.1 (UTC 2008-12-04)
Аудио
Идентификатор : 1
Формат : MPEG Audio
Версия формата : Version 1
Профиль формата : Layer 3
Идентификатор кодека : 55
Идентификатор кодека/Подсказка : MP3
Продолжительность : 18 м.
Вид битрейта : Постоянный
Битрейт : 128 Кбит/сек
Каналы : 2 канала
Частота : 48,0 КГц
Метод сжатия : С потерями
Размер потока : 16,7 Мбайт (8%)
Выравнивание : Соединение по промежуткам
Библиотека кодирования : LAME3.98r
Настройки программы : -m s -V 4 -q 2 -lowpass 17 -b 128
-Скриншоты:


Смотреть онлайн

[trackeroc.ru].12573.torrent 
Торрент: Зарегистрирован   [ 2016-05-09 11:12 ]

Скачать торрент

16 KB

Статус: проверено
Скачан: 9 раз
Размер: 200 MB
 


Admin (09-май-16)
Похожие торренты
Форум Тема Автор Размер
Российские Праздничный салют, посвященный Дню Победы. Москва (2016.05.09) HDTV [H.264/1080i-LQ] BiOS 522 MB
Российские Парад Победы, посвященный 71-ой годовщине Победы в ВОВ 1941-1945г., Москва (2016.05.09) HDTV [H.264/1080i] BiOS 4.19 GB
Российские Парад Победы, посвященный 71-ой годовщине Победы в ВОВ 1941-1945г., Грозный (2016.05.09) SATRip BiOS 336 MB
Российские Парад Победы, посвященный 71-ой годовщине Победы в ВОВ 1941-1945г., Калининград (2016.05.09) WEBRip BiOS 811 MB
Российские Парад Победы, посвященный 71-ой годовщине Победы в ВОВ 1941-1945г., Донецк (2016.05.09) WEBRip BiOS 820 MB

_________________
[Профиль] [ЛС]
Показать сообщения:    
Ответить на тему

Текущее время: Сегодня 22:06

Часовой пояс: GMT + 4



Вы не можете начинать темы
Вы не можете отвечать на сообщения
Вы не можете редактировать свои сообщения
Вы не можете удалять свои сообщения
Вы не можете голосовать в опросах
Вы не можете прикреплять файлы к сообщениям
Вы можете скачивать файлы