Пандора / Pandora / Сезон: 1 / Серии: 1-3 из 7 скачать торрент

Reply to topic

DL-List and Torrent activity [Update пиров]
Size:  1.06 GB   |    Registered:  16 days   |    Completed:  0 times
Seeders:  3  [  0 KB/s  ]   Leechers:  6  [  0 KB/s  ]   Show peers in full details
 
 
 
 
Author Message

Admin ®

Longevity: 3 years 3 months

Posts: 6960

Location: trackeroc.ru


Post 02-Aug-2019 12:36

[Quote]

Пандора | Pandora- Год выпуска: 2019
Страна: США
Жанр: фантастика, боевик, драма
Продолжительность: ~ 00:42:00
Перевод: Профессиональный (многоголосый закадровый) TVShows--Режиссёр: Стивен Хьюз, Бретт Симмонс, Кристиан Госсетт
В ролях: Присцилла Квинтана, Рашель Банно, Ной Хантли, Темина Санни, Бен Рэдклифф, Ти Джэй Дженкенс, Карина Банно, Тина Каскиани, Оливер Денч и др.-Описание: 2199-й год. Потерявшая всё Джакс начинает новую жизнь в космической академии, где вместе с друзьями учится защищать планету от человеческих и инопланетных угроз. Однако правда о прошлом девушки может как спасти Вселенную, так и уничтожить её.-
Качество: WEB-DLRip
Формат: AVI
Видео: XVID, 720x400, 23.976 fps, 2000 kbps avg, 0.29 bit/pixel
Аудио Rus: AC3, 48.0 KHz, 6 channels, 384 kbps
Субтитры: нет

MediaInfo

General
Complete name : G:\Пандора (Сезон 1) TVShows\Pandora.S01E01.WEB-DLRip.RGzsRutracker.Celta88.avi
Format : AVI
Format/Info : Audio Video Interleave
File size : 728 MiB
Duration : 42 min 32 s
Overall bit rate : 2 393 kb/s
Writing application : VirtualDubMod 1.5.10.3 | www.virtualdub-fr.org || (build 2550/release)
Writing library : VirtualDubMod build 2550/release
Video
ID : 0
Format : MPEG-4 Visual
Format profile : Advanced [email protected]
Format settings, BVOP : 1
Format settings, QPel : No
Format settings, GMC : No warppoints
Format settings, Matrix : Custom
Codec ID : XVID
Codec ID/Hint : XviD
Duration : 42 min 32 s
Bit rate : 2 000 kb/s
Width : 720 pixels
Height : 400 pixels
Display aspect ratio : 16:9
Frame rate : 23.976 (24000/1001) FPS
Color space : YUV
Chroma subsampling : 4:2:0
Bit depth : 8 bits
Scan type : Progressive
Compression mode : Lossy
Bits/(Pixel*Frame) : 0.290
Stream size : 609 MiB (84%)
Writing library : XviD 73
Audio
ID : 1
Format : AC-3
Format/Info : Audio Coding 3
Mode extension : CM (complete main)
Format settings, Endianness : Big
Codec ID : 2000
Duration : 42 min 32 s
Bit rate mode : Constant
Bit rate : 384 kb/s
Channel(s) : 6 channels
Channel positions : Front: L C R, Side: L R, LFE
Sampling rate : 48.0 kHz
Frame rate : 31.250 FPS (1536 spf)
Bit depth : 16 bits
Compression mode : Lossy
Stream size : 117 MiB (16%)
Alignment : Split accross interleaves
Interleave, duration : 42 ms (1.00 video frame)
Interleave, preload duratio : 500 ms

Скриншоты

Внимание! Раздача ведётся путём добавления новых серий!

Внимание! Раздача ведётся путём добавления новых серий; при каждом добавлении создаётся новый торрент.
Чтобы начать докачку новой серии, пользователям необходимо сделать следующее:
1. Остановить скачивание.
2. Удалить старый торрент у себя из клиента (старые серии удалять не надо).
3. Скачать новый торрент и запустить его у себя в клиенте вместо старого, при этом указать клиенту путь в старую папку куда и должно происходить скачивание новых серий.
Ваш клиент при этом должен произвести хеширование (проверку) старой папки (если не производит сам - помогите ему сделать это), и будет докачивать только те серии которых у вас ещё нет. Старые серии при этом не удаляются, а продолжают раздаваться!
Eсли вы уже удалили старые серии, то предотвратить повторную закачку старых серий можно, отжав галочку в соответствующих местах при запуске нового торрента.


Смотреть онлайн


[trackeroc.info].17805.torrent 
Torrent: Registered   [ 2019-08-02 12:36 ]

Скачать торрент

11 KB

Status: checked
Completed: 2 times
Size: 1.06 GB
 


_________________
[Profile] [PM]
Display posts from previous:    
Reply to topic

The time now is: Today 23:35

All times are GMT + 4 Hours



You cannot post new topics in this forum
You cannot reply to topics in this forum
You cannot edit your posts in this forum
You cannot delete your posts in this forum
You cannot vote in polls in this forum
You cannot attach files in this forum
You can download files in this forum