Окрыленные [серии 1-20 из 20] [2015, Драма, Комедия, SATRip] скачать торрент

Reply to topic

DL-List and Torrent activity [Update пиров]
Size:  9.77 GB   |    Registered:  4 years 1 month   |    Completed:  0 times

Seeder not seen: Never

 
 
 
 
 
Author Message

Матвей ®

Longevity: 4 years 2 months

Posts: 223

Location: Челябинск


Post 19-Oct-2015 21:26

[Quote]

Окрыленные --- Производство: Россия, «Леан-М»
Жанр: Драма, Комедия
Режиссер: Анна Писаненко
Актеры: Ольга Лукьяненко, Олеся Гаевая, Юлия Маргулис, Серафима Низовская, Мария Табак, Егор Кутенков, Степан Девонин, Александр Ведменский, Андрей Хитрин, Вадим Ситников, Евгений Чупин, Александр Энагели, Ричард Бондарев, Антон Афанасьев, Марина Барсукова, Валерий Новиков, Ирина Темичева, Мария Баева, Иван Шмаков, Александра Кузенкина, Александра Булычёва, Юлия Юрченко, Маруся Климова, Лейла Абу-аль-Кишек, Рина Гришина, Игорь Скрипко, Денис Урюпин, Анастасия Стежко, Алексей Гладков, Софья Игнатова
Описание:
Сериал о команде бортпроводников и их коллег-пилотов из авиакомпании "Ю-Лайт". Члены экипажа "Юлы", как они ее сами называют, используют любую возможность хорошо оторваться, устроить розыгрыш или закатить скандал. Они - молодые, красивые и "окрылённые" своей профессией. Пассажиры видят их на борту неизменно улыбающимися, уверенными и безупречными. Но, как и обычные земные люди, бортпроводники и пилоты тоже влюбляются и разбивают сердца, ссорятся и мирятся, смеются и плачут. Скоро все узнают, что люди из авиации делают не только в небе, но и на земле.


Дата премьеры в России: 21 сентября 2015
Продолжительность: ~ 00:40:00 серия
Качество видео: SATRip
Видео: Xvid, 720x384, ~1500 Кбит/с
Аудио: AC3, 2 ch, 192 Кбит/с, CBR

Mediainfo:

Код:
Общее
Полное имя                               : D:\МОЯ\torrent\Окрыленные.2015.SATRip\01.Окрыленные.2015.avi
Формат                                   : AVI
Формат/Информация                        : Audio Video Interleave
Размер файла                             : 500 Мбайт
Продолжительность                        : 40 м.
Общий поток                              : 1739 Кбит/сек
Программа кодирования                    : VirtualDubMod 1.5.10.3 | [url=http://www.virtualdub-fr.org]www.virtualdub-fr.org[/url] || (build 2550/release)
Библиотека кодирования                   : VirtualDubMod build 2550/release
Видео
Идентификатор                            : 0
Формат                                   : MPEG-4 Visual
Профиль формата                          : Advanced [email protected]
Параметр BVOP формата                    : 1
Параметр QPel формата                    : Нет
Параметр GMC формата                     : Без точки перехода
Параметр матрицы формата                 : Выборочная
Идентификатор кодека                     : XVID
Идентификатор кодека/Подсказка           : XviD
Продолжительность                        : 40 м.
Битрейт                                  : 1537 Кбит/сек
Ширина                                   : 720 пикселей
Высота                                   : 384 пикселя
Соотношение сторон                       : 1,85:1
Частота кадров                           : 25,000 кадров/сек
Цветовое пространство                    : YUV
Субдискретизация насыщенности            : 4:2:0
Битовая глубина                          : 8 бит
Тип развёртки                            : Прогрессивная
Метод сжатия                             : С потерями
Бит/(Пиксели*Кадры)                      : 0.222
Размер потока                            : 442 Мбайт (88%)
Библиотека кодирования                   : XviD 73
Аудио
Идентификатор                            : 1
Формат                                   : AC-3
Формат/Информация                        : Audio Coding 3
Расширение режима                        : CM (complete main)
Параметр Endianness формата              : Big
Идентификатор кодека                     : 2000
Продолжительность                        : 40 м.
Вид битрейта                             : Постоянный
Битрейт                                  : 192 Кбит/сек
Каналы                                   : 2 канала
Расположение каналов                     : Front: L R
Частота                                  : 48,0 КГц
Метод сжатия                             : С потерями
Размер потока                            : 55,2 Мбайт (11%)
Выравнивание                             : Разделение по промежуткам
Продолжительность промежутка             : 40  мс. (1,00 видеокадр)
Время предзагрузки промежутка            : 500  мс.
Скриншоты:


Смотреть онлайн


[trackeroc.ru].9007.torrent 
Torrent: Registered   [ 2015-10-19 21:26 ]

Скачать торрент

51 KB

Status: checked
Completed: 80 times
Size: 9.77 GB
 

Admin (19-окт-15), BiOS (20-окт-15)
Similar torrent
Forum Topic Author Size
Зарубежные сериалы Крёстный отец Гарлема / Godfather of Harlem [сезон 1 серии 1-10 из 10] Admin 7.29 GB
Зарубежные сериалы Блудный сын / Prodigal Son [сезон 1 серии 1-10 из 22] Admin 5.9 GB
Зарубежные сериалы Касл-Рок / Castle Rock [сезон 2 серии 1-9 из 10] Admin 12.72 GB
Зарубежные сериалы Утреннее шоу / The Morning Show / Сезон: 1 / Серии: 1-7 из 10 Admin 5.79 GB
Зарубежные сериалы Американская история ужасов / American Horror Story / Сезон: 9 / Серии: 1-9 из 9 Admin 5.25 GB

_________________

[Profile] [PM]
Display posts from previous:    
Reply to topic

The time now is: Today 03:12

All times are GMT + 4 Hours



You cannot post new topics in this forum
You cannot reply to topics in this forum
You cannot edit your posts in this forum
You cannot delete your posts in this forum
You cannot vote in polls in this forum
You cannot attach files in this forum
You can download files in this forum