Нюхач [сезон 4] скачать торрент

Reply to topic

DL-List and Torrent activity [Update пиров]
Size:  5.19 GB   |    Registered:  19 days   |    Completed:  0 times
Seeders:  122  [  0 KB/s  ]   Leechers:  31  [  0 KB/s  ]   Show peers in full details
 
 
 
 
Author Message

Admin ®

Longevity: 3 years 8 months

Posts: 7509

Location: trackeroc.ru


Post 04-Jan-2020 14:25

[Quote]

Информация о фильме
Оригинальное название: Нюхач
Год выхода: 2019
Жанр: Детектив
Режиссер: Артем Литвиненко, Антон Щербаков
В ролях: Кирилл Кяро, Иван Оганесян, Николай Чиндяйкин, Мария Аниканова, Агне Грудите, Нина Гогаева, Евгений Черников, Артём Позняк, Дарья Орехова, Сергей Анашкин (II)
О фильме:
Его зовут Нюхач, он обладает сверхчувствительным обонянием. Для него не существует тайн и безнадежных преступлений, ведь в первую же минуту знакомства он готов рассказать о любом человеке абсолютно все. Но у этого дара есть и обратная сторона: Нюхач абсолютно беззащитен перед окружающим миром. Он не умеет строить отношения с людьми. Ему невозможно сделать сюрприз, его нельзя обмануть, любой посторонний запах оттолкнет его от самого романтического свидания... В новом сезоне Нюхач, параллельно с расследованием самых запутанных преступлений, погрузится в собственное прошлое, в котором есть свои "скелеты". А в жизнях Виктора, Ирины, Юлии и Тани произойдут неожиданные перемены...

Страна: Россия, Украина
Студия: FILM.UA, Pronto Film, FOUNDLAND PICTURES LIMITED
Продолжительность: 8 х 00:51:00
Перевод: Не требуется
Файл
Кодек: XviD
Качество: WEB-DLRip
Видео: XviD, ~ 1625 Кбит/с, 720x400, 25 кадр/с
Звук: AC3, 2 ch, 192 Кбит/с

Скриншоты





MediaInfo

General
Complete name : C:25.Нюхач.s04.E01.(2019).WEB-DLRip.by.Nicodem.Files-x.avi
Format : AVI
Format/Info : Audio Video Interleave
File size : 670 MiB
Duration : 51mn 16s
Overall bit rate : 1 827 Kbps
Writing application : VirtualDubMod 1.5.10.3 | www.virtualdub-fr.org || (build 2550/release)
Writing library : VirtualDubMod build 2550/release
Video
ID : 0
Format : MPEG-4 Visual
Format profile : Advanced [email protected]
Format settings, BVOP : 1
Format settings, QPel : No
Format settings, GMC : No warppoints
Format settings, Matrix : Custom
Codec ID : XVID
Codec ID/Hint : XviD
Duration : 51mn 16s
Bit rate : 1 625 Kbps
Width : 720 pixels
Height : 400 pixels
Display aspect ratio : 16:9
Frame rate : 25.000 fps
Color space : YUV
Chroma subsampling : 4:2:0
Bit depth : 8 bits
Scan type : Progressive
Compression mode : Lossy
Bits/(Pixel*Frame) : 0.226
Stream size : 596 MiB (89%)
Writing library : XviD 73
Audio
ID : 1
Format : AC-3
Format/Info : Audio Coding 3
Mode extension : CM (complete main)
Codec ID : 2000
Duration : 51mn 16s
Bit rate mode : Constant
Bit rate : 192 Kbps
Channel(s) : 2 channels
Channel positions : Front: L R
Sampling rate : 48.0 KHz
Bit depth : 16 bits
Compression mode : Lossy
Stream size : 70.4 MiB (11%)
Alignment : Split accross interleaves
Interleave, duration : 40 ms (1.00 video frame)
Interleave, preload duration : 500 ms

Внимание! Раздача ведётся путём добавления новых серий

Раздача ведётся путём добавления новых серий, при каждом добавлении создаётся новый торрент. Чтобы начать докачку новой серии, пользователям необходимо сделать следующее:
- Остановить скачивание.
- Удалить старый торрент у себя из клиента (старые серии удалять не надо).
- Скачать новый торрент и запустить его у себя в клиенте вместо старого, при этом указать клиенту путь в старую папку куда и должно происходить скачивание новых серий.
Ваш клиент при этом должен произвести хеширование (проверку) старой папки (если не производит сам - помогите ему сделать это), и будет докачивать только те серии которых у вас ещё нет. Старые серии при этом не удаляются, а продолжают раздаваться!
Если вы уже удалили старые серии, то предотвратить повторную закачку старых серий можно, отжав галочку в соответствующих местах при запуске нового торрента. По возможности, желательно не удалять старые серии как можно дольше, чтобы релизер не столько продолжал раздавать старые серии, а смог сконцентрироваться на новых.


Смотреть онлайн


[trackeroc.info].18488.torrent 
Torrent: Registered   [ 2020-01-04 14:25 ]

Скачать торрент

15 KB

Status: checked
Completed: 4 times
Size: 5.19 GB
 

Similar torrent
Forum Topic Author Size
Зарубежные сериалы Волшебники / The Magicians [сезон 5 серии 1-2 из 13] Admin 1.03 GB
Зарубежные сериалы Лига Октября / October Faction [сезон 1 серии 1-1 из 10] Admin 3.03 GB
Зарубежные сериалы Чудотворцы / Miracle Workers [сезон 2 серии 1-1 из 7] Admin 297 MB
Зарубежные сериалы Манифест / Manifest [сезон 2 серии 1-3 из 16] Admin 1.87 GB
Зарубежные сериалы Легенды завтрашнего дня / DC's Legends of Tomorrow [сезон 5 серии 1-2 из 15] Admin 1.36 GB

_________________
[Profile] [PM]
Display posts from previous:    
Reply to topic

The time now is: Today 20:28

All times are GMT + 4 Hours



You cannot post new topics in this forum
You cannot reply to topics in this forum
You cannot edit your posts in this forum
You cannot delete your posts in this forum
You cannot vote in polls in this forum
You cannot attach files in this forum
You can download files in this forum