Мистер Мерседес / Mr. Mercedes (2017-2019) WEB-DLRip (сезон 1-3, серии 1-30 из 30) LostFilm скачать торрент

Reply to topic

DL-List and Torrent activity [Update пиров]
Size:  21.47 GB   |    Registered:  22 days   |    Completed:  0 times

Seeder not seen: Never

 
 
 
 
 
Author Message

Admin ®

Longevity: 3 years 11 months

Posts: 7794

Location: trackeroc.ru trackeroc.org trackeroc.info trackeroc.tk


Post 18-Mar-2020 10:22

[Quote]

Мистер Мерседес / Mr. Mercedes
«Don't let him inside your head»
- Производство: США / David E. Kelley Productions, Nomadicfilm, Temple Hill Entertainment
Жанр: фантастика, триллер, детектив
Режиссер: Джек Бендер, Лора Иннес, Джон Дэвид Коулз
Актеры: Брендан Глисон, Джаррель Джером, Гарри Тредэвэй, Келли Линч, Эд Андерсон, Роб Нитер, Джастин Люпе
Описание:
Экранизация одноименного романа Стивена Кинга.
Отставной полицейский Билл Ходжес возвращается к работе, так как ему не дает покоя нераскрытое дело — жестокое убийство шестнадцати человек. Брэди Хартфилд не может забыть пьянящее чувство, когда на угнанном «мерседесе» он врезался в группу ни в чём не повинных людей. Брэди не хочет останавливаться — он уже планирует новое преступление, на этот раз намного более масштабное. Биллу Ходжесу и его команде необходимо опередить его и спасти жизнь уже не десяткам, а сотням людей.

Возраст: 18+ (зрителям, достигшим 18 лет. запрещено для детей)
Релиз от: MegaPeer
Продолжительность: 00:55:00 серия
Качество видео: WEB-DLRip
Перевод: Многоголосый профессиональный (LostFilm)
Видео: Xvid, 720x400, ~1600 kbps
Аудио#1: MP3, 2 ch, 128 kbps - русский, многоголосый профессиональный
Аудио#2: MP3, 2 ch, 128 kbps - английский

MediaInfo:

Общее
Полное имя : Mr.Mercedes.s03e09.LostFilm.avi
Формат : AVI
Формат/Информация : Audio Video Interleave
Размер файла : 707 Мбайт
Продолжительность : 52 м. 50 с.
Общий поток : 1870 Кбит/сек
Программа кодирования : VirtualDubMod 1.5.10.2 (build 2540/release)
Библиотека кодирования : VirtualDubMod build 2540/release
Видео
Идентификатор : 0
Формат : MPEG-4 Visual
Профиль формата : Advanced [email protected]
Настройки формата : BVOP1
Параметр BVOP формата : 1
Параметр QPel формата : Нет
Параметр GMC формата : Без точки перехода
Параметр матрицы формата : Default (MPEG)
Идентификатор кодека : XVID
Идентификатор кодека/Подсказка : XviD
Продолжительность : 52 м. 50 с.
Битрейт : 1600 Кбит/сек
Ширина : 720 пикселей
Высота : 400 пикселей
Соотношение сторон : 16:9
Частота кадров : 23,976 (24000/1001) кадра/сек
Цветовое пространство : YUV
Субдискретизация насыщенности : 4:2:0
Битовая глубина : 8 бит
Тип развёртки : Прогрессивная
Метод сжатия : С потерями
Бит/(Пиксели*Кадры) : 0.232
Размер потока : 605 Мбайт (86%)
Библиотека кодирования : XviD 67
Аудио #1
Идентификатор : 1
Формат : MPEG Audio
Версия формата : Version 1
Профиль формата : Layer 3
Настройки формата : Joint stereo / MS Stereo
Идентификатор кодека : 55
Идентификатор кодека/Подсказка : MP3
Продолжительность : 52 м. 49 с.
Вид битрейта : Постоянный
Битрейт : 128 Кбит/сек
Каналы : 2 канала
Частота : 48,0 КГц
Метод сжатия : С потерями
Размер потока : 48,4 Мбайт (7%)
Выравнивание : Разделение по промежуткам
Продолжительность промежутка : 42 мс. (1,00 видеокадр)
Время предзагрузки промежутка : 500 мс.
Аудио #2
Идентификатор : 2
Формат : MPEG Audio
Версия формата : Version 1
Профиль формата : Layer 3
Настройки формата : Joint stereo / MS Stereo
Идентификатор кодека : 55
Идентификатор кодека/Подсказка : MP3
Продолжительность : 52 м. 49 с.
Вид битрейта : Постоянный
Битрейт : 128 Кбит/сек
Каналы : 2 канала
Частота : 48,0 КГц
Метод сжатия : С потерями
Размер потока : 48,4 Мбайт (7%)
Выравнивание : Разделение по промежуткам
Продолжительность промежутка : 42 мс. (1,00 видеокадр)
Время предзагрузки промежутка : 500 мс.
-Скриншоты:


Смотреть онлайн


[trackeroc.info].18807.torrent 
Torrent: Registered   [ 2020-03-18 10:22 ]

Скачать торрент

218 KB

Status: checked
Completed: 4 times
Size: 21.47 GB
 

Similar torrent
Forum Topic Author Size
Зарубежные сериалы Мистер Робот / Mr. Robot [сезон 4 серии 1-13 из 13] Admin 7.28 GB
Зарубежные сериалы Мистер Робот / Mr. Robot / Сезон: 3 / Серии: 1-10 из 10 [2017] Admin 6.09 GB
Комедии Мистер Штайн идёт в онлайн / Un profil pour deux [2017, WEB-DLRip] Admin 1.46 GB
Зарубежные сериалы Мистер Робот / Mr. Robot (2015) WEB-DLRip (сезон 1, серии 1-10) LostFilm Admin 3.46 GB
[Profile] [PM]
Display posts from previous:    
Reply to topic

The time now is: Today 00:36

All times are GMT + 4 Hours



You cannot post new topics in this forum
You cannot reply to topics in this forum
You cannot edit your posts in this forum
You cannot delete your posts in this forum
You cannot vote in polls in this forum
You cannot attach files in this forum
You can download files in this forum