МаксимМаксим (2016.06.18) SATRip (выпуск 4) скачать торрент

Reply to topic

DL-List and Torrent activity [Update пиров]
Size:  666 MB   |    Registered:  2 years 11 months   |    Completed:  0 times

Seeder not seen: 2 years 11 months

 
 
 
 
 
Author Message

BiOS ®

Longevity: 5 years 1 month

Posts: 1198

Location: Raccoon City


Post 27-Jun-2016 07:09

[Quote]

МаксимМаксим - Телекомпания: Первый канал
Жанр: ТВ-Шоу
Ведущие: Игорь Верник и Юлия Ковальчук.
Описание:
Максим Галкин открывает перед зрителями Первого канала двери своего замка и приглашает субботним вечером на новое шоу «МаксимМаксим». Зажигательные гости, уморительные скетчи и неожиданные открытия — скучно не будет! Максим Галкин: «Мы стартуем с новым шоу в мае, когда телевизионщики уже пакуют отпускные чемоданы. Впрочем, на Первом канале сезон вообще никогда не заканчивается. К тому же не отстаем от «Игры престолов», которой законы телевидения не помешали стартовать в апреле. В отличие от знаменитого мрачноватого сериала мое шоу обещает быть более жизнерадостным — скрасим вам теплые летние вечера. По ходу работы над проектом я принял рекордное количество людей в замке, впервые сел за руль, захватил несколько останкинских студий в отсутствие их хозяев и с кем только не спелся.
Релиз от: Хотт@быч
Продолжительность: 00:48:03
Качество видео: SATRip
Субтитры: Отсутствуют
Видео: MPEG4, XviD, 704x448 (1.571), 25.000 fps, 1 800 Kbps (0.228 bit/pixel)
Аудио: AC-3, 48.0 KHz, 2 ch, 128 Kbps, CBR

Mediainfo:

Код:
Формат                                   : AVI
Формат/Информация                        : Audio Video Interleave
Размер файла                             : 666 Мбайт
Продолжительность                        : 48 м.
Общий поток                              : 1938 Кбит/сек
Программа кодирования                    : VirtualDubMod 1.5.10.3 | www.virtualdub-fr.org || (build 2550/release)
Библиотека кодирования                   : VirtualDubMod build 2550/release
Видео
Идентификатор                            : 0
Формат                                   : MPEG-4 Visual
Профиль формата                          : Advanced [email protected]
Параметр BVOP формата                    : 3
Параметр QPel формата                    : Нет
Параметр GMC формата                     : Без точки перехода
Параметр матрицы формата                 : Default (H.263)
Идентификатор кодека                     : XVID
Идентификатор кодека/Подсказка           : XviD
Продолжительность                        : 48 м.
Битрейт                                  : 1800 Кбит/сек
Ширина                                   : 704 пикселя
Высота                                   : 448 пикселей
Соотношение сторон                       : 16:10
Частота кадров                           : 25,000 кадров/сек
Цветовое пространство                    : YUV
Субдискретизация насыщенности            : 4:2:0
Битовая глубина                          : 8 бит
Тип развёртки                            : Прогрессивная
Метод сжатия                             : С потерями
Бит/(Пиксели*Кадры)                      : 0.228
Размер потока                            : 619 Мбайт (93%)
Библиотека кодирования                   : XviD 1.2.1 (UTC 2008-12-04)
Аудио
Идентификатор                            : 1
Формат                                   : AC-3
Формат/Информация                        : Audio Coding 3
Расширение режима                        : CM (complete main)
Параметр Endianness формата              : Big
Идентификатор кодека                     : 2000
Продолжительность                        : 48 м.
Вид битрейта                             : Постоянный
Битрейт                                  : 128 Кбит/сек
Каналы                                   : 2 канала
Расположение каналов                     : Front: L R
Частота                                  : 48,0 КГц
Битовая глубина                          : 16 бит
Метод сжатия                             : С потерями
Размер потока                            : 44,0 Мбайт (7%)
Выравнивание                             : Разделение по промежуткам
Продолжительность промежутка             : 40  мс. (1,00 видеокадр)
Время предзагрузки промежутка            : 500  мс.
-Скриншоты:


Смотреть онлайн


[trackeroc.ru].13455.torrent 
Torrent: Registered   [ 2016-06-27 07:09 ]

Скачать торрент

14 KB

Status: checked
Completed: 46 times
Size: 666 MB
 

Similar torrent
Forum Topic Author Size
Инди Sandbox (Linux+Mac) Factorio v0.17.49 (2016) [amd64] (ENG+RUS) ddayver 2.33 GB
Песочницы , Sandbox Factorio v0.17.49 (2016) [64bit] (ENG+RUS) ddayver 1.17 GB
Cимуляторы Pulsar: Lost Colony [Beta 24.3] (2016) (ENG) Repack DD Admin 955 MB
Песочницы , Sandbox Starbound - Bounty Hunter v1.4.1 [2016] (RUS/ENG) Admin 1.53 GB
Cимуляторы Automation: The Car Company Tycoon Game [v190527] [Early Access] [RUS/ENG] (2016) Repack DD Admin 4.14 GB

_________________
[Profile] [PM]
Display posts from previous:    
Reply to topic

The time now is: Today 18:48

All times are GMT + 4 Hours



You cannot post new topics in this forum
You cannot reply to topics in this forum
You cannot edit your posts in this forum
You cannot delete your posts in this forum
You cannot vote in polls in this forum
You cannot attach files in this forum
You can download files in this forum