Madonna - MDNA Tour (Live in Abu Dhabi) (2012) CAMRip скачать торрент

Reply to topic

DL-List and Torrent activity [Update пиров]
Size:  2.89 GB   |    Registered:  3 years 10 months   |    Completed:  1 time

Seeder not seen: 3 months 22 days

 
 
 
 
 
Author Message

BiOS ®

Longevity: 5 years 4 months

Posts: 1197

Location: Raccoon City


Post 13-Nov-2015 02:56

[Quote]

Madonna - MDNA Tour (Live in Abu Dhabi)- Год выпуска: 2012
Производство: ОАЭ
Жанр: Pop, Dance, Rock, Electro-Описание: Любительская запись концерта Мадонны в Абу-Даби в рамках тура - "MDNA Tour".-Продолжительность: 01:39:21
Качество видео: CAMRip-Видеокодек: XviD
Битрейт видео: 3961 kbps
Размер кадра: 720x480
Аудио: MP3, 2.0, 192 kbps
Сэмпл: Скачать-

Треклист:

Треклист:
01. "Intro: Act of Contrition"
02. "Girl Gone Wild" (содержит элементы из "Material Girl", а также отрывки из "Give It 2 Me")
03. "Revolver"
04. "Gang Bang"
05. "Papa Don't Preach"
06. "Hung Up" (содержит элементы из "Girl Gone Wild")
07. "I Don't Give A"
08. "Best Friend" (Видеоинтерлюдия) (содержит элементы из "Heartbeat")
09. "Express Yourself" (С элементами из "Born This Way" и "She's Not Me")
10. "Give Me All Your Luvin’" (Just Blaze Bionic Dub)
11. "Turn Up the Radio"
12. "Open Your Heart" (содержит элементы "Sagarra Jo")
13. "Masterpiece"
14. "Justify My Love" (Видеоинтерлюдия)
15. "Vogue"
16. "Candy Shop" (содержит элементы из "Erotica")
17. "Human Nature"
18. "Like a Virgin" (содержит элементы из "Evgeni’s Waltz")
19. "Nobody Knows Me" (Видеоинтерлюдия)
20. "I'm Addicted"
21. "I'm a Sinner" (содержит элементы из "Cyber-Raga")
22. "Like a Prayer"
23. "Celebration" (содержит элементы из "Girl Gone Wild")
-

MediaInfo:

Код:
Полное имя                               : Z:\Концерты\Madonna - MDNA Tour (Live in Abu Dhabi) (2012) CAMRip.AVI
Формат                                   : AVI
Формат/Информация                        : Audio Video Interleave
Профиль формата                          : OpenDML
Размер файла                             : 2,89 Гбайт
Продолжительность                        : 1 ч. 39 м.
Общий поток                              : 4158 Кбит/сек
Видео
Идентификатор                            : 0
Формат                                   : MPEG-4 Visual
Профиль формата                          : [email protected]
Параметр BVOP формата                    : Нет
Параметр QPel формата                    : Нет
Параметр GMC формата                     : Без точки перехода
Параметр матрицы формата                 : Default (H.263)
Идентификатор кодека                     : XVID
Идентификатор кодека/Подсказка           : XviD
Продолжительность                        : 1 ч. 39 м.
Битрейт                                  : 3961 Кбит/сек
Ширина                                   : 720 пикселей
Высота                                   : 480 пикселей
Соотношение сторон                       : 3:2
Частота кадров                           : 25,000 кадров/сек
Стандарт вещания                         : NTSC
Цветовое пространство                    : YUV
Субдискретизация насыщенности            : 4:2:0
Битовая глубина                          : 8 бит
Тип развёртки                            : Прогрессивная
Метод сжатия                             : С потерями
Бит/(Пиксели*Кадры)                      : 0.458
Размер потока                            : 2,75 Гбайт (95%)
Библиотека кодирования                   : ZJMedia MPEG Encoder
Аудио
Идентификатор                            : 1
Формат                                   : MPEG Audio
Версия формата                           : Version 1
Профиль формата                          : Layer 3
Режим                                    : Joint stereo
Расширение режима                        : MS Stereo
Идентификатор кодека                     : 55
Идентификатор кодека/Подсказка           : MP3
Продолжительность                        : 1 ч. 39 м.
Вид битрейта                             : Постоянный
Битрейт                                  : 192 Кбит/сек
Каналы                                   : 2 канала
Частота                                  : 44,1 КГц
Метод сжатия                             : С потерями
Размер потока                            : 136 Мбайт (5%)
Выравнивание                             : Разделение по промежуткам
Продолжительность промежутка             : 1000  мс. (25,00 видеокадров)
-Скриншоты:



[trackeroc.ru].9713.torrent 
 SILVER TORRENT! DOWNLOAD TRAFFIC PARTIALLY CONSIDERED! 
Torrent: Registered   [ 2015-11-13 03:01 ]

Скачать торрент

15 KB

Status: checked
Completed: 75 times
Size: 2.89 GB
 

Similar torrent
Forum Topic Author Size
Видео клипы Madonna The Confessions Tour Live From London (2006) DVDRip BiOS 2.1 GB

_________________
[Profile] [PM]
Display posts from previous:    
Reply to topic

The time now is: Today 20:20

All times are GMT + 4 Hours



You cannot post new topics in this forum
You cannot reply to topics in this forum
You cannot edit your posts in this forum
You cannot delete your posts in this forum
You cannot vote in polls in this forum
You cannot attach files in this forum
You can download files in this forum