Парад Победы, посвященный 71-ой годовщине Победы в ВОВ 1941-1945г., Владивосток (2016.05.09) SATRip

Ответить на тему

Статистика раздачи [Обновить пиров]
Размер:  975 MB   |    Зарегистрирован:  6 месяцев 28 дней   |    Скачан:  0 раз

Полного источника не было: 6 месяцев 27 дней

 
 
 
 
Автор Сообщение

BiOS ®

Стаж: 2 года 7 месяцев

Сообщений: 1222

Откуда: Raccoon City


Пост 09-Май-2016 10:42

[Цитировать]

Парад Победы, посвященный 71-ой годовщине Победы в ВОВ 1941-1945г., Владивосток - Жанр: Документальный, военный парад
Описание:
Военный парад, посвященный 71-й годовщине Победы в Великой Отечественной войне.
Каждый год 9 мая во многих странах мира отмечают День Победы над немецко-фашистскими захватчиками. Но нигде этот праздник не празднуют с таким размахом, как в России. В 2016 году отмечается 71 год со Дня Победы.
Релиз от: VaGON4eG
Продолжительность: 01:02:00
Качество видео: SATRip
Субтитры: Отсутствуют
Видео: xvid, 720x400 (16:9), 25.000 fps, 1 994 Kbps (0.277 bit/pixel)
Аудио: MP3, 48.0 KHz, 2 ch, 192 Kbps, CBR

Mediainfo:

Код:
Формат                                   : AVI
Формат/Информация                        : Audio Video Interleave
Размер файла                             : 975 Мбайт
Продолжительность                        : 1 ч. 2 м.
Общий поток                              : 2199 Кбит/сек
Программа кодирования                    : Lavf54.63.104
Видео
Идентификатор                            : 0
Формат                                   : xvid
Идентификатор кодека                     : xvid
Продолжительность                        : 1 ч. 2 м.
Битрейт                                  : 1994 Кбит/сек
Ширина                                   : 720 пикселей
Высота                                   : 400 пикселей
Соотношение сторон                       : 16:9
Частота кадров                           : 25,000 кадров/сек
Бит/(Пиксели*Кадры)                      : 0.277
Размер потока                            : 885 Мбайт (91%)
Аудио
Идентификатор                            : 1
Формат                                   : MPEG Audio
Версия формата                           : Version 1
Профиль формата                          : Layer 3
Режим                                    : Joint stereo
Расширение режима                        : MS Stereo
Идентификатор кодека                     : 55
Идентификатор кодека/Подсказка           : MP3
Продолжительность                        : 1 ч. 2 м.
Вид битрейта                             : Постоянный
Битрейт                                  : 192 Кбит/сек
Каналы                                   : 2 канала
Частота                                  : 48,0 КГц
Метод сжатия                             : С потерями
Размер потока                            : 85,2 Мбайт (9%)
Выравнивание                             : Соединение по промежуткам
Продолжительность промежутка             : 24  мс. (0,60 видеокадр)
Библиотека кодирования                   : LAME3.99.5
-Скриншоты:


Смотреть онлайн

[trackeroc.ru].12569.torrent 
Торрент: Зарегистрирован   [ 2016-05-09 11:00 ]

Скачать торрент

20 KB

Статус: проверено
Скачан: 7 раз
Размер: 975 MB
 


Admin (09-май-16)
Похожие торренты
Форум Тема Автор Размер
Российские Праздничный салют, посвященный Дню Победы. Москва (2016.05.09) HDTV [H.264/1080i-LQ] BiOS 522 MB
Российские Парад Победы, посвященный 71-ой годовщине Победы в ВОВ 1941-1945г., Москва (2016.05.09) HDTV [H.264/1080i] BiOS 4.19 GB
Российские Парад Победы, посвященный 71-ой годовщине Победы в ВОВ 1941-1945г., Грозный (2016.05.09) SATRip BiOS 336 MB
Российские Парад Победы, посвященный 71-ой годовщине Победы в ВОВ 1941-1945г., Калининград (2016.05.09) WEBRip BiOS 811 MB
Российские Парад Победы, посвященный 71-ой годовщине Победы в ВОВ 1941-1945г., Донецк (2016.05.09) WEBRip BiOS 820 MB

_________________
[Профиль] [ЛС]
Показать сообщения:    
Ответить на тему

Текущее время: Сегодня 12:13

Часовой пояс: GMT + 4



Вы не можете начинать темы
Вы не можете отвечать на сообщения
Вы не можете редактировать свои сообщения
Вы не можете удалять свои сообщения
Вы не можете голосовать в опросах
Вы не можете прикреплять файлы к сообщениям
Вы можете скачивать файлы