Король обезьян: Герой вернулся / Monkey King – Hero is back / Xi you ji zhi da sheng gui lai (2015) WEB-DLRip [Line]

Ответить на тему

Статистика раздачи [Обновить пиров]
Размер:  1.46 GB   |    Зарегистрирован:  6 месяцев 26 дней   |    Скачан:  0 раз

Полного источника не было: 5 месяцев 27 дней

 
 
 
 
Автор Сообщение

BiOS ®

Стаж: 2 года 7 месяцев

Сообщений: 1223

Откуда: Raccoon City


Пост 06-Дек-2015 04:37

[Цитировать]

Король обезьян: Герой вернулся - Производство: Китай \ Beijing Weiyingshidai Culture & Media, Hengdian Chinese Film Production Co., October Animation Studio, Shandong Film and Television Production Center
Жанр: Мультфильм, Фэнтези, Комедия, Приключения, Семейный
Режиссер: Тиан Сяо Пенг
Актеры: Федор Чин, Ника Футтерман, Джеймс Хонг, Дэвид Юнг, Kannon Kurowski, Zijie Lin, Jiurong Liu, Джон Олсон, Джои Рихтер, Стефани Шех
Описание:
Вот уже 500 лет люди и Боги ничего не слышали о Царе обезьян. Он стал обыкновенной легендой горы. Однажды на город Чанъань, что лежит у подножья Великой Мраморной горы напал злой демон. Для приобретения силы и бессмертия он забирает девочек и женщин, живущих в городе. Маленький мальчик Цзян Лю спасает свою сестрёнку из лап злого демона и, чтобы защитить её, сбегает вместе с ней из города.
Во время побега, дети проваливаются в ледяной туннель, находящийся внутри Мраморной горы (Гора Пяти Стихий). Там, в заточении льдов, крепко спит Царь обезьян. Цзян Лю не подозревает, что это за глыба льда и случайно снимает печать заточения. С этого момента и начинается новое великое приключение Царя обезьян. Теперь детям придётся проводить Его обратно в город Чанъань, откуда они недавно сбежали. В день полного солнечного затмения в монастыре Демона состоится финальная битва добра и зла. Сможет ли когда-то великий герой, владевший магией и кунг-фу, постигший вершины 72 волшебных превращений спасти людей и победить могучего демона? Или за годы заточения он растерял все свои навыки?
Дата мировой премьеры: 10.07.2015
Дата премьеры в России: 19.03.2016, «Top Film Distribution»

Возраст: 6+ (зрителям, достигшим 6 лет)
Продолжительность: 01:26:51
Качество видео: WEB-DLRip
Перевод: Дублированный (Line)
Субтитры: Отсутствуют
Реклама: Отсутствует
Видео: MPEG4, XviD, 720x304 (2.35:1), 24.000 fps, 2 203 Kbps (0.419 bit/pixel)
Аудио: AC-3, 48.0 KHz, 2 ch, 192 Kbps, CBR

Mediainfo:

Код:
Формат                                   : AVI
Формат/Информация                        : Audio Video Interleave
Размер файла                             : 1,46 Гбайт
Продолжительность                        : 1 ч. 26 м.
Общий поток                              : 2404 Кбит/сек
Название фильма                          : Korol.Obezjan.Vozvrashhenie.Geroja.2015.D.WEB-DLRip.1.46Gb_by_Twi7ter
Режиссёр                                 : Twi7ter
Жанр                                     : Adventure/Fantasy
Программа кодирования                    : VirtualDubMod 1.5.10.3 (build 2550/release)
Формат оригинала/Имя                     : Cartoon
Видео
Идентификатор                            : 0
Формат                                   : MPEG-4 Visual
Профиль формата                          : Advanced Simple@L5
Параметр BVOP формата                    : 2
Параметр QPel формата                    : Нет
Параметр GMC формата                     : Без точки перехода
Параметр матрицы формата                 : Выборочная
Идентификатор кодека                     : XVID
Идентификатор кодека/Подсказка           : XviD
Продолжительность                        : 1 ч. 26 м.
Битрейт                                  : 2203 Кбит/сек
Ширина                                   : 720 пикселей
Высота                                   : 304 пикселя
Соотношение сторон                       : 2,35:1
Частота кадров                           : 24,000 кадра/сек
Цветовое пространство                    : YUV
Субдискретизация насыщенности            : 4:2:0
Битовая глубина                          : 8 бит
Тип развёртки                            : Прогрессивная
Метод сжатия                             : С потерями
Бит/(Пиксели*Кадры)                      : 0.419
Размер потока                            : 1,34 Гбайт (92%)
Библиотека кодирования                   : XviD 73
Аудио
Идентификатор                            : 1
Формат                                   : AC-3
Формат/Информация                        : Audio Coding 3
Расширение режима                        : CM (complete main)
Параметр Endianness формата              : Big
Идентификатор кодека                     : 2000
Продолжительность                        : 1 ч. 26 м.
Вид битрейта                             : Постоянный
Битрейт                                  : 192 Кбит/сек
Каналы                                   : 2 канала
Расположение каналов                     : Front: L R
Частота                                  : 48,0 КГц
Битовая глубина                          : 16 бит
Метод сжатия                             : С потерями
Размер потока                            : 119 Мбайт (8%)
Выравнивание                             : Разделение по промежуткам
Продолжительность промежутка             : 42  мс. (1,00 видеокадр)
Время предзагрузки промежутка            : 500  мс.
-Скриншоты:


Смотреть онлайн

[trackeroc.ru].10279.torrent 
Торрент: Зарегистрирован   [ 2016-05-10 07:30 ]

Скачать торрент

15 KB

Статус: проверено
Скачан: 111 раз
Размер: 1.46 GB
 


Admin (06-дек-15)
Похожие торренты
Форум Тема Автор Размер
Зарубежные сериалы 12 обезьян / 12 Monkeys (2016) (сезон 2, серии 1-11 из 13) Admin 4.19 GB
Фантастика Фэнтези Американский герой / American Hero (2015) HDRip [VO] Admin 1.37 GB
Драмы Девушка-король / The girl king [2015, WEBRip] Admin 1.45 GB
Видео клипы Король и Шут - Нашествие (2013) WEB-DLRip BiOS 417 MB

_________________


Последний раз редактировалось: BiOS (2016-05-10 07:30), всего редактировалось 5 раз(а)
[Профиль] [ЛС]

BiOS ®

Стаж: 2 года 7 месяцев

Сообщений: 1223

Откуда: Raccoon City


Пост 06-Дек-2015 04:50 (спустя 13 минут)

[Цитировать]

Мульт отличный! Осталось дождаться качества) 

_________________
[Профиль] [ЛС]

DarthNihilus

Стаж: 2 года

Сообщений: 121


Пост 01-Мар-2016 11:02 (спустя 2 месяца 26 дней)

[Цитировать]

Хм... А может он девочек просто так забирал? :) 
[Профиль] [ЛС]

BiOS ®

Стаж: 2 года 7 месяцев

Сообщений: 1223

Откуда: Raccoon City


Пост 25-Мар-2016 21:34 (спустя 24 дня)

[Цитировать]

Торрент-файл перезалит, просьба перекачать/перехешировать с уже скачанным заново !!! 

_________________
[Профиль] [ЛС]
Показать сообщения:    
Ответить на тему

Текущее время: Сегодня 16:31

Часовой пояс: GMT + 4



Вы не можете начинать темы
Вы не можете отвечать на сообщения
Вы не можете редактировать свои сообщения
Вы не можете удалять свои сообщения
Вы не можете голосовать в опросах
Вы не можете прикреплять файлы к сообщениям
Вы можете скачивать файлы