Игра. Реванш (2016) HDTVRip (сезон 2, серии 1-20 серии из 20) скачать торрент

Reply to topic

DL-List and Torrent activity [Update пиров]
Size:  11.66 GB   |    Registered:  3 years 5 months   |    Completed:  1 time
Seeders:  265  [  0 KB/s  ]   Leechers:  827  [  0 KB/s  ]   Show peers in full details
 
 
 
 
Author Message

BiOS ®

Longevity: 5 years 7 months

Posts: 1195

Location: Raccoon City


Post 14-Jun-2016 19:11

[Quote]

Игра. Реванш - Производство: Россия / DixiMedia
Жанр: Детектив, Криминал
Режиссер: Олег Галин, Иван Щёголев
Актеры: Павел Баршак, Прохор Дубравин, Евгений Стычкин, Николай Козак, Дарья Повереннова, Спартак Сумченко, Павел Басов, Алиса Корсак, Владимир Колида, Дмитрий Блажко, Игорь Маслов , Мария Баева, Роман Гредин, Анатолий Завьялов, Михаил Хмуров, Дмитрий Опаричев, Денис Дружинин
Описание:
Прошло три года с тех пор, как полковник Павел Белов и отчаянный преступник Алексей Смолин столкнулись в смертельной схватке. Смолин отбывает пожизненное заключение, Белов сменил место работы и должность, теперь он начальник службы безопасности крупного банка. Он сам, его жена и дочь спокойно спят по ночам, не боясь внезапного нападения. Но однажды Белов видит Смолина на улице и понимает, что ничего еще не закончилось. Каким образом преступнику удалось выйти на свободу и будет ли он мстить своему личному врагу и его семье? Но Белов даже не представляет, с какими по-настоящему страшными людьми ему придется бороться. По сравнению с ними Смолин окажется меньшим из зол.
Возраст: 12+ (зрителям, достигшим 12 лет)
Дата российской премьеры: 13 июня 2016 (НТВ)
Качество: HDTVRip
Видео: XviD, ~ 1600 Кбит/с, 720x400
Аудио: AC3, 2 ch, 192 Кбит/с

Mediainfo:

Код:
Общее
Полное имя : C:\01.Igra.2.revanch.2016.HDTVRip.Files-x.avi
Формат : AVI
Формат/Информация : Audio Video Interleave
Размер файла : 600 Мбайт
Продолжительность : 46 м.
Общий поток : 1808 Кбит/сек
Программа кодирования : VirtualDubModRus 1.5.10.2 (build 2542/release)
Библиотека кодирования : VirtualDubMod build 2542/release
Видео
Идентификатор : 0
Формат : MPEG-4 Visual
Профиль формата : Advanced [email protected]
Параметр BVOP формата : 1
Параметр QPel формата : Нет
Параметр GMC формата : Без точки перехода
Параметр матрицы формата : Выборочная
Идентификатор кодека : XVID
Идентификатор кодека/Подсказка : XviD
Продолжительность : 46 м.
Битрейт : 1606 Кбит/сек
Ширина : 720 пикселей
Высота : 400 пикселей
Соотношение сторон : 16:9
Частота кадров : 25,000 кадров/сек
Цветовое пространство : YUV
Субдискретизация насыщенности : 4:2:0
Битовая глубина : 8 бит
Тип развёртки : Прогрессивная
Метод сжатия : С потерями
Бит/(Пиксели*Кадры) : 0.223
Размер потока : 533 Мбайт (89%)
Библиотека кодирования : XviD 73
Аудио
Идентификатор : 1
Формат : AC-3
Формат/Информация : Audio Coding 3
Расширение режима : CM (complete main)
Параметр Endianness формата : Big
Идентификатор кодека : 2000
Продолжительность : 46 м.
Вид битрейта : Постоянный
Битрейт : 192 Кбит/сек
Каналы : 2 канала
Расположение каналов : Front: L R
Частота : 48,0 КГц
Частота кадров : 31,250 кадров/сек (1536 spf)
Метод сжатия : С потерями
Размер потока : 63,7 Мбайт (11%)
Выравнивание : Разделение по промежуткам
Продолжительность промежутка : 40 мс. (1,00 видеокадр)
Время предзагрузки промежутка : 500 мс.
-Скриншоты:


Смотреть онлайн


[trackeroc.ru].13149.torrent 
Torrent: Registered   [ 2016-06-22 11:42 ]

Скачать торрент

60 KB

Status: checked
Completed: 90 times
Size: 11.66 GB
 

Admin (14-июн-16)
Similar torrent
Forum Topic Author Size
Песочницы , Sandbox Universe SandBox 2 [Update 24.0.2] (x64) (2016) (RUS|ENG|MULTI20) Repack DD Admin 628 MB
Зомби игры Survival Horror 7 Days To Die Alpha 18.2 (b5) (64bit) [Early Access] (2016) [RUS|ENG] Repack DD Admin 4.27 GB
Cимуляторы Euro Truck Simulator 2 - Road to the Black Sea (2016) [RUS] [ENG] [MULTI23] Admin 7.11 GB
Cимуляторы Automation: The Car Company Tycoon Game [v191129] [Early Access] [RUS/ENG] (2016) Repack DD Admin 4.68 GB
RPG ролевые игры Stardew Valley v1.4.2 (2016) (RUS|ENG) Admin 357 MB

_________________
[Profile] [PM]
Display posts from previous:    
Reply to topic

The time now is: Today 03:41

All times are GMT + 4 Hours



You cannot post new topics in this forum
You cannot reply to topics in this forum
You cannot edit your posts in this forum
You cannot delete your posts in this forum
You cannot vote in polls in this forum
You cannot attach files in this forum
You can download files in this forum