Хроники Шаннары / The Shannara Chronicles (2016) WEB-DLRip (сезон 1, серии 1-10) LostFilm

Ответить на тему

Статистика раздачи [Обновить пиров]
Размер:  4.89 GB   |    Зарегистрирован:  6 месяцев 18 дней   |    Скачан:  1 раз
Сидов:  267  [  0 KB/s  ]   Личеров:  40  [  0 KB/s  ]   Подробная статистика пиров
   
 
Автор Сообщение

BiOS ®

Стаж: 2 года 7 месяцев

Сообщений: 1222

Откуда: Raccoon City


Пост 06-Фев-2016 02:22

[Цитировать]

Хроники Шаннары / The Shannara Chronicles- Производство: США / Farah Films, Music Television (MTV), Sonar Entertainment
Жанр: фантастика, фэнтези, приключения
Режиссер: Брэд Тернер, Джонатан Либесман, Джеймс Маршалл
Актеры: Ивана Бакеро, Дэниэл МакФерсон, Джон Рис-Дэвис, Маркус Ванко, Брук Уильямс, Ману Беннетт, Остин Роберт Батлер, Поппи Дрейтон, Аарон Якубенко и др.
Описание:
События сериала происходят в далёком будущем. Войны разделили Северную Америку на 4 части. На какой-то из них обитают эльфы, на иной — люди, на третьей — тролли и на четвёртой — дворфы. Основными персонажами сериала окажутся отпрыски древнего рода эльфов — Шаннара. Именно от них будет зависеть будущая судьба планеты…
Дата мировой премьеры: 5 января 2016
Продолжительность: ~00:41:00 серия
Качество видео: WEB-DLRip
Перевод: Многоголосый закадровый, профессиональный - LostFilm
Видео: XviD, 720x400 (16:9), ~1500 kb/s
Аудио Rus: MPEG Layer 3, 48,0 kHz, 2 ch, 128 kb/s — многоголосый закадровый
Аудио Eng: MPEG Layer 3, 48,0 kHz, 2 ch, 128 kb/s — оригинал

MediaInfo

Код:
Общее
Полное имя                               : A:\The.Shannara.Chronicles.S01E01.WEB-DLRip.Rus.Eng.DV.LostFilm.avi
Формат                                   : AVI
Формат/Информация                        : Audio Video Interleave
Размер файла                             : 525 Мбайт
Продолжительность                        : 41 м.
Общий поток                              : 1780 Кбит/сек
Программа кодирования                    : VirtualDubModRus 1.5.10.2 (build 2542/release)
Библиотека кодирования                   : VirtualDubMod build 2542/release
Видео
Идентификатор                            : 0
Формат                                   : MPEG-4 Visual
Профиль формата                          : Advanced Simple@L5
Параметр BVOP формата                    : 2
Параметр QPel формата                    : Нет
Параметр GMC формата                     : Без точки перехода
Параметр матрицы формата                 : Default (H.263)
Идентификатор кодека                     : XVID
Идентификатор кодека/Подсказка           : XviD
Продолжительность                        : 41 м.
Битрейт                                  : 1510 Кбит/сек
Ширина                                   : 720 пикселей
Высота                                   : 400 пикселей
Соотношение сторон                       : 16:9
Частота кадров                           : 23,976 (24000/1001) кадра/сек
Цветовое пространство                    : YUV
Субдискретизация насыщенности            : 4:2:0
Битовая глубина                          : 8 бит
Тип развёртки                            : Прогрессивная
Метод сжатия                             : С потерями
Бит/(Пиксели*Кадры)                      : 0.219
Размер потока                            : 445 Мбайт (85%)
Заголовок                                : Rip by DriverV / NNM-Club
Библиотека кодирования                   : XviD 64
Аудио #1
Идентификатор                            : 1
Формат                                   : MPEG Audio
Версия формата                           : Version 1
Профиль формата                          : Layer 3
Режим                                    : Joint stereo
Расширение режима                        : MS Stereo
Идентификатор кодека                     : 55
Идентификатор кодека/Подсказка           : MP3
Продолжительность                        : 41 м.
Вид битрейта                             : Постоянный
Битрейт                                  : 128 Кбит/сек
Каналы                                   : 2 канала
Частота                                  : 48,0 КГц
Метод сжатия                             : С потерями
Задержка видео                           : 20 мс.
Размер потока                            : 37,7 Мбайт (7%)
Выравнивание                             : Разделение по промежуткам
Продолжительность промежутка             : 42  мс. (1,00 видеокадр)
Время предзагрузки промежутка            : 500  мс.
Аудио #2
Идентификатор                            : 2
Формат                                   : MPEG Audio
Версия формата                           : Version 1
Профиль формата                          : Layer 3
Режим                                    : Joint stereo
Расширение режима                        : MS Stereo
Идентификатор кодека                     : 55
Идентификатор кодека/Подсказка           : MP3
Продолжительность                        : 41 м.
Вид битрейта                             : Постоянный
Битрейт                                  : 128 Кбит/сек
Каналы                                   : 2 канала
Частота                                  : 48,0 КГц
Метод сжатия                             : С потерями
Задержка видео                           : 20 мс.
Размер потока                            : 37,7 Мбайт (7%)
Выравнивание                             : Разделение по промежуткам
Продолжительность промежутка             : 42  мс. (1,00 видеокадр)
Время предзагрузки промежутка            : 500  мс.
-Скриншоты:


Смотреть онлайн

[trackeroc.ru].11499.torrent 
Торрент: Зарегистрирован   [ 2016-05-21 09:29 ]

Скачать торрент

26 KB

Статус: проверено
Скачан: 11 раз
Размер: 4.89 GB
 


Admin (06-фев-16)
Похожие торренты
Форум Тема Автор Размер
Приключенческие игры Adventure Everybody's Gone to the Rapture / Хроники последних дней (2016) [Ru/Multi] (1.0) License CODEX BiOS 6.3 GB
Приключенческие игры Adventure Everybody's Gone to the Rapture / Хроники последних дней (2016) [Ru/En] (3.6.17.3222) Repack VickNet BiOS 4.19 GB
Зарубежные сериалы Хроники Лиззи Борден / The Lizzie Borden Chronicles / Сезон: 1 / Серии: 1-8 [2015] Admin 4.72 GB
Зарубежные сериалы Хроники Шаннары / The Shannara Chronicles (2016) WEB-DLRip (сезон 1, серии 1-10) Admin 5.2 GB

_________________
[Профиль] [ЛС]
Показать сообщения:    
Ответить на тему

Текущее время: Сегодня 02:03

Часовой пояс: GMT + 4



Вы не можете начинать темы
Вы не можете отвечать на сообщения
Вы не можете редактировать свои сообщения
Вы не можете удалять свои сообщения
Вы не можете голосовать в опросах
Вы не можете прикреплять файлы к сообщениям
Вы можете скачивать файлы