Холодное блюдо [серии 1-2 из 2] (Глеб Якубовский) [2015, Мелодрама, HDTVRip]

Ответить на тему

Статистика раздачи [Обновить пиров]
Размер:  2.73 GB   |    Зарегистрирован:  1 год 8 месяцев   |    Скачан:  2 раза
Сидов:  25  [  0 KB/s  ]   Подробная статистика пиров
 
   
 
 
Автор Сообщение

Матвей ®

Стаж: 1 год 8 месяцев

Сообщений: 232

Откуда: Челябинск


Пост 10-Окт-2015 17:03

[Цитировать]

Холодное блюдо (серии 1-2 из 2) -- Производство: Россия / продюсерский центр "Фабула"
Жанр: Мелодрама
Режиссер: Глеб Якубовский
Актеры: Евгения Нохрина, Алексей Демидов, Павел Яскевич, Александр Суцковер, Вячеслав Павлють, Олег Ткачёв, Ольга Сизова и др.
Описание:
Когда жених Жени Олег погибает в автокатастрофе по вине пьяного водителя, то она жаждет только одного: чтобы Костю Стрельцова, совершившего наезд, посадили надолго.
Но этого не случается, так как шалопай Костя - сын местного олигарха, и отец неоднократно спасал его от ответственности.
Тогда Женя решает, что свершит правосудие сама и добьется того, чтобы Костя оказался за решеткой...

КиноПоиск
Продолжительность: внимание ~ 01:30:00 серия
Качество видео: HDTVRip
Видео: Xvid, 720x400, ~1950 Кбит/с
Аудио: AC3, 2 ch, 192 Кбит/с, CBR

Mediainfo:

Код:
Общее
Полное имя                               : D:\МОЯ\torrent\Холодное блюдо.2015.HDTVRip\01.Холодное блюдо.2015.HDTVRip.avi
Формат                                   : AVI
Формат/Информация                        : Audio Video Interleave
Размер файла                             : 1,37 Гбайт
Продолжительность                        : 1 ч. 31 м.
Общий поток                              : 2147 Кбит/сек
Программа кодирования                    : VirtualDubMod 1.5.10.3 | [url=http://www.virtualdub-fr.org]www.virtualdub-fr.org[/url] || (build 2550/release)
Библиотека кодирования                   : VirtualDubMod build 2550/release
Видео
Идентификатор                            : 0
Формат                                   : MPEG-4 Visual
Профиль формата                          : Advanced Simple@L5
Параметр BVOP формата                    : 1
Параметр QPel формата                    : Нет
Параметр GMC формата                     : Без точки перехода
Параметр матрицы формата                 : Выборочная
Идентификатор кодека                     : XVID
Идентификатор кодека/Подсказка           : XviD
Продолжительность                        : 1 ч. 31 м.
Битрейт                                  : 1945 Кбит/сек
Ширина                                   : 720 пикселей
Высота                                   : 400 пикселей
Соотношение сторон                       : 16:9
Частота кадров                           : 25,000 кадров/сек
Цветовое пространство                    : YUV
Субдискретизация насыщенности            : 4:2:0
Битовая глубина                          : 8 бит
Тип развёртки                            : Прогрессивная
Метод сжатия                             : С потерями
Бит/(Пиксели*Кадры)                      : 0.270
Размер потока                            : 1,24 Гбайт (91%)
Библиотека кодирования                   : XviD 73
Аудио
Идентификатор                            : 1
Формат                                   : AC-3
Формат/Информация                        : Audio Coding 3
Расширение режима                        : CM (complete main)
Параметр Endianness формата              : Big
Идентификатор кодека                     : 2000
Продолжительность                        : 1 ч. 31 м.
Вид битрейта                             : Постоянный
Битрейт                                  : 192 Кбит/сек
Каналы                                   : 2 канала
Расположение каналов                     : Front: L R
Частота                                  : 48,0 КГц
Метод сжатия                             : С потерями
Размер потока                            : 125 Мбайт (9%)
Выравнивание                             : Разделение по промежуткам
Продолжительность промежутка             : 40  мс. (1,00 видеокадр)
Время предзагрузки промежутка            : 500  мс.

Скриншоты:



Смотреть онлайн

[trackeroc.ru].8558.torrent 
Торрент: Зарегистрирован   [ 2015-10-10 17:03 ]

Скачать торрент

15 KB

Статус: проверено
Скачан: 16 раз
Размер: 2.73 GB
 


Похожие торренты
Форум Тема Автор Размер
Зарубежные сериалы Крушение / Wrecked [сезон 2 серии 1-2 из 10] (2017) Admin 634 MB
Зарубежные сериалы Сшиватели / Stitchers [сезон 3 серии 1-3 из 8] (2017) Admin 1.45 GB
Зарубежные сериалы Люцифер / Lucifer [сезон 2 серии 1-14 из 18] (2016) Admin 6.4 GB
Зарубежные сериалы Джеймстаун / Jamestown [сезон 1 серии 1-6 из 8] (2017) Admin 3.88 GB
Зарубежные сериалы Мистер Булл / Bull [сезон 1 серии 1-14 из 23] (2016) WEB-DLRip Admin 5.98 GB

_________________

[Профиль] [ЛС]
Показать сообщения:    
Ответить на тему

Текущее время: Сегодня 09:04

Часовой пояс: GMT + 4



Вы не можете начинать темы
Вы не можете отвечать на сообщения
Вы не можете редактировать свои сообщения
Вы не можете удалять свои сообщения
Вы не можете голосовать в опросах
Вы не можете прикреплять файлы к сообщениям
Вы можете скачивать файлы