Горячая зона / The Hot Zone / Сезон: 1 / Серии 1-6 из 6 скачать торрент

Reply to topic

DL-List and Torrent activity [Update пиров]
Size:  3.2 GB   |    Registered:  16 days   |    Completed:  0 times

Seeder not seen: Never

Leechers:  4  [  0 KB/s  ]   Show peers in full details
 
 
 
 
 
Author Message

Admin ®

Longevity: 3 years 1 month

Posts: 6680

Location: trackeroc.ru


Post 31-May-2019 10:41

[Quote]

Горячая зона / The Hot Zone
Год выпуска: 2019
Страна: США
Жанр: фантастика, триллер, драма
Продолжительность: ~01:00:00
Перевод: Любительский (двухголосый закадровый) Gears Media
Режиссёр: Майкл Аппендаль
В ролях: Лиам Каннингэм, Джеймс Д’Арси, Ноа Эммерих, Тофер Грейс, Пол Джеймс, Марк Келли, Роберт Шон Леонард, Джулианна Маргулис, Ленни Арройо-Платт, Ник Сирси
Описание:
«Горячая зона» – это сериал от National Geographic, вдохновленный одноименным книжным бестселлером Ричарда Престона. Действие происходит в научном центре в пригороде Вашингтона, где ученые пытаются предотвратить вспышку очень заразного и смертельного вируса Эбола.
Качество: WEBRip
Формат: AVI
Видео: XviD, 720x400 at 23.976 fps, ~1480 kbps avg
Аудио1: Russian, MP3, 48 kHz, 2 ch, 128 kbps
Аудио2: English, MP3, 48 kHz, 2 ch, 128 kbps
Субтитры: нет
Реклама: аудио (два раза, в начале и конце, по 12 сек.)

MediaInfo

Format : AVI
Format/Info : Audio Video Interleave
File size : 582 MiB
Duration : 46 min 12 s
Overall bit rate : 1 760 kb/s
Writing application : Lavf58.20.100
Video
ID : 0
Format : MPEG-4 Visual
Format profile : Advanced [email protected]
Format settings : BVOP1
Format settings, BVOP : 1
Format settings, QPel : No
Format settings, GMC : No warppoints
Format settings, Matrix : Default (H.263)
Codec ID : XVID
Codec ID/Hint : XviD
Duration : 46 min 12 s
Bit rate : 1 484 kb/s
Width : 720 pixels
Height : 400 pixels
Display aspect ratio : 16:9
Frame rate : 23.976 (24000/1001) FPS
Color space : YUV
Chroma subsampling : 4:2:0
Bit depth : 8 bits
Scan type : Progressive
Compression mode : Lossy
Bits/(Pixel*Frame) : 0.215
Stream size : 490 MiB (84%)
Writing library : XviD 67
Audio #1
ID : 1
Format : MPEG Audio
Format version : Version 1
Format profile : Layer 3
Format settings : Joint stereo / MS Stereo
Codec ID : 55
Codec ID/Hint : MP3
Duration : 46 min 12 s
Bit rate mode : Constant
Bit rate : 128 kb/s
Channel(s) : 2 channels
Sampling rate : 48.0 kHz
Compression mode : Lossy
Stream size : 42.3 MiB (7%)
Alignment : Aligned on interleaves
Interleave, duration : 24 ms (0.58 video frame)
Title : Gears Media
Writing library : LAME3.100
Audio #2
ID : 2
Format : MPEG Audio
Format version : Version 1
Format profile : Layer 3
Format settings : Joint stereo
Codec ID : 55
Codec ID/Hint : MP3
Duration : 46 min 12 s
Bit rate mode : Constant
Bit rate : 128 kb/s
Channel(s) : 2 channels
Sampling rate : 48.0 kHz
Compression mode : Lossy
Stream size : 42.3 MiB (7%)
Alignment : Aligned on interleaves
Interleave, duration : 24 ms (0.58 video frame)
Writing library : LAME3.100UUUUUUUUU

Скриншоты

Внимание! Раздача ведётся путём добавления новых серий

Внимание! Раздача ведётся путём добавления новых серий; при каждом добавлении создаётся новый торрент. Чтобы начать докачку новой серии, пользователям необходимо сделать следующее:
(1) остановить скачивание,
(2) удалить старый торрент у себя из клиента (старые серии удалять не надо),
(3) скачать новый торрент и запустить его у себя в клиенте вместо старого, при этом указать клиенту путь в старую папку куда и должно происходить скачивание новых серий.
Ваш клиент при этом должен произвести хеширование (проверку) старой папки (если не производит сам - помогите ему сделать это), и будет докачивать только те серии которых у вас ещё нет. Старые серии при этом не удаляются, а продолжают раздаваться!
Eсли вы уже удалили старые серии, то предотвратить повторную закачку старых серий можно, отжав галочку в соответствующих местах при запуске нового торрента. По возможности, желательно не удалять старые серии как можно дольше чтобы релизёр не столько продолжал раздавать старые серии, а смог сконцентрироваться на новых.


Смотреть онлайн


[trackeroc.org].17542.torrent 
Torrent: Registered   [ 2019-06-01 12:43 ]

Скачать торрент

17 KB

Status: checked
Completed: 5 times
Size: 3.2 GB
 

Similar torrent
Forum Topic Author Size
Зарубежные сериалы Сумеречная зона / The Twilight Zone [сезон 1 серии 1-10 из 10] (2019) Admin 5.04 GB
Зарубежные сериалы Белая зона / Zone Blanche [сезон 1 серии 1-8 из 8] (2017) Admin 5.35 GB
Зарубежные сериалы Зона / La zona [сезон 1 серии 1-8 из 8] (2017) Admin 6.6 GB
Российские сериалы Чернобыль: Зона отчуждения (2017) WEB-DLRip (Сезон 2, серии 1-8 из 8) Angel 2.91 GB

_________________
[Profile] [PM]
Display posts from previous:    
Reply to topic

The time now is: Today 18:33

All times are GMT + 4 Hours



You cannot post new topics in this forum
You cannot reply to topics in this forum
You cannot edit your posts in this forum
You cannot delete your posts in this forum
You cannot vote in polls in this forum
You cannot attach files in this forum
You can download files in this forum