Флэш / The Flash [сезон 1-5] (2014-2019) скачать торрент

Reply to topic

DL-List and Torrent activity [Update пиров]
Size:  21.41 GB   |    Registered:  1 month 2 days   |    Completed:  0 times
Seeders:  6  [  0 KB/s  ]   Leechers:  2  [  0 KB/s  ]   Show peers in full details
 
 
 
 
Author Message

Admin ®

Longevity: 3 years 4 months

Posts: 7144

Location: trackeroc.ru


Post 18-Aug-2019 13:20

[Quote]

Информация о фильме
Название: Флэш
Оригинальное название: The Flash
Год выхода: 2014
Жанр: Фантастика
Режиссер: Дэвид Наттер
В ролях: Грант Гастин, Кэндис Паттон, Рик Коснетт, Даниэль Панабэйкер, Карлос Вальдес, Томас Кэвэна, Джесси Л. Мартин, Джон Уэсли Шипп, Стивен Амелл, Ёсиэ Бэнкрофт, Мэтт Летчер
О фильме:
Из-за несчастного случая судмедэксперт Барри Аллен приобретает способность передвигаться с невероятной скоростью. Этот случай делает из него супергероя, которым он всегда мечтал стать. Защищая город, как ангел-хранитель, делая невозможное, спасая жизни со скоростью вспышки, по подсказке Оливера Куина (Стрела), он берёт себе и соответствующее имя - Флэш.

Страна: США
Студия: Berlanti Productions, DC Entertainment, Warner Bros. Television
Продолжительность: 114 x ~ 00:43:00
Перевод: Профессиональный (многоголосый, закадровый) [LostFilm]
Файл
Формат: MP4
Качество: WEB-DLRip | КПК
Видео: MPEG-4 AVC (x264), 640x360, ~500 kbps, 23.976 fps
Аудио: AAC LC, 48.0 KHz, 2 ch, 128 Kbps
Субтитры: Нет
Семпл

Скриншоты

MI

Complete name : E:KinoFlash.AVC.WEB-DLRip.KPK.GFFlash.S01.2014-2015.AVC.WEB-DLRip.KPK.LF.GFFlash..s01e08.2014.AVC.WEB-DLRip.KPK.LF.GF.mp4
Format : MPEG-4
Codec ID : M4V
File size : 194 MiB
Duration : 42mn 42s
Overall bit rate mode : Variable
Overall bit rate : 634 Kbps
Writing application : Lavf53.19.0
Video
ID : 1
Format : AVC
Format/Info : Advanced Video Codec
Format profile : [email protected]
Format settings, CABAC : Yes
Format settings, ReFrames : 8 frames
Codec ID : avc1
Codec ID/Info : Advanced Video Coding
Duration : 42mn 42s
Source duration : 14mn 4s
Bit rate : 500 Kbps
Width : 640 pixels
Height : 360 pixels
Display aspect ratio : 16:9
Frame rate mode : Constant
Frame rate : 23.976 fps
Color space : YUV
Chroma subsampling : 4:2:0
Bit depth : 8 bits
Scan type : Progressive
Bits/(Pixel*Frame) : 0.091
Stream size : 153 MiB (79%)
Source stream size : 153 MiB (79%)
Writing library : x264 core 130 r2273 b3065e6
Encoding settings : cabac=1 / ref=8 / deblock=1:-2:-2 / analyse=0x3:0x133 / me=umh / subme=10 / psy=1 / psy_rd=1.00:0.00 / mixed_ref=1 / me_range=24 / chroma_me=1 / trellis=2 / 8x8dct=1 / cqm=0 / deadzone=21,11 / fast_pskip=1 / chroma_qp_offset=-2 / threads=12 / lookahead_threads=2 / sliced_threads=0 / nr=0 / decimate=0 / interlaced=0 / bluray_compat=0 / constrained_intra=0 / bframes=8 / b_pyramid=2 / b_adapt=2 / b_bias=0 / direct=3 / weightb=1 / open_gop=0 / weightp=2 / keyint=240 / keyint_min=121 / scenecut=40 / intra_refresh=0 / rc_lookahead=40 / rc=2pass / mbtree=1 / bitrate=500 / ratetol=1.0 / qcomp=0.60 / qpmin=0 / qpmax=69 / qpstep=4 / cplxblur=20.0 / qblur=0.5 / ip_ratio=1.40 / aq=1:1.00
mdhd_Duration : 2562773
Audio
ID : 2
Format : AAC
Format/Info : Advanced Audio Codec
Format profile : LC
Codec ID : 40
Duration : 42mn 42s
Bit rate mode : Variable
Bit rate : 128 Kbps
Channel(s) : 2 channels
Channel positions : Front: L R
Sampling rate : 48.0 KHz
Compression mode : Lossy
Stream size : 39.1 MiB (20%)


Смотреть онлайн


[trackeroc.info].17961.torrent 
Torrent: Registered   [ 2019-08-18 13:20 ]

Скачать торрент

68 KB

Status: checked
Completed: 4 times
Size: 21.41 GB
 

Similar torrent
Forum Topic Author Size
Зарубежные сериалы Флэш / The Flash (сезон 5, серии 1-23 из 23) Admin 10.69 GB

_________________
[Profile] [PM]
Display posts from previous:    
Reply to topic

The time now is: Today 00:53

All times are GMT + 4 Hours



You cannot post new topics in this forum
You cannot reply to topics in this forum
You cannot edit your posts in this forum
You cannot delete your posts in this forum
You cannot vote in polls in this forum
You cannot attach files in this forum
You can download files in this forum