По законам военного времени (2016) DVBRip (серии 1-12 из 12)

Ответить на тему

Статистика раздачи [Обновить пиров]
Размер:  8.57 GB   |    Зарегистрирован:  6 месяцев 19 дней   |    Скачан:  1 раз

Полного источника не было: 5 месяцев 2 дня

 
 
 
 
Автор Сообщение

BiOS ®

Стаж: 2 года 7 месяцев

Сообщений: 1223

Откуда: Raccoon City


Пост 15-Май-2016 04:52

[Цитировать]

По законам военного времени - Производство: Россия, Украина / "StarMedia"
Жанр: военный, драма, исторический
Режиссер: Максим Мехеда
Актеры: Евгений Воловенко, Екатерина Климова, Максим Дрозд, Сергей Сосновский, Валерий Сковронский, Игорь Петрусенко, Андрей Саминин, Пётр Крылов, Виталий Салий, Игорь Рубашкин, Валерий Шалыга, Михаил Жонин, Александра Сизоненко, Александр Панкратов-Чёрный и др.
Описание:
Июль 1941 года. Фашисты рвутся к Киеву. Обстановка в городе накаляется с каждым днем, что добавляет работы лучшему следователю киевской военной прокуратуры Ивану Рокотову. Из Москвы неожиданно прибывает заместитель главного военного прокурора РККА Николай Мирский. Он создает особый отдел в военной прокуратуре фронта, в который входят Рокотов и бывший следователь Днепропетровского УГРО Светлана Елагина. Рокотову и Елагиной придется расследовать особо важные дела, действуя как на передовой, в Киевском укрепрайоне, так и в самом городе, где активизировавшийся преступный мир начинает объединяться с просачивающимися в город немецкими диверсантами. Да и некоторые представители Советской власти не прочь нагреть руки на страданиях народа.
Возраст: 12+ (зрителям, достигшим 12 лет)
Дата мировой премьеры: 09 мая 2016
Продолжительность: ~00:50:00 серия
Качество видео: DVBRip
Субтитры: украинские неотключаемые
Видео: XVID, 720х400 (16:9), ~1800 Kbps
Аудио: AC3, 2 ch, 192 Kbps, CBR

MediaInfo:

Код:
Общее
Полное имя                               : С:\По законам военного времени - 01 серия.avi
Формат                                   : AVI
Формат/Информация                        : Audio Video Interleave
Размер файла                             : 695 Мбайт
Продолжительность                        : 48 м.
Общий поток                              : 2002 Кбит/сек
Программа кодирования                    : VirtualDubMod 1.5.10.3 | www.virtualdub-fr.org || (build 2550/release)
Библиотека кодирования                   : VirtualDubMod build 2550/release
Видео
Идентификатор                            : 0
Формат                                   : MPEG-4 Visual
Профиль формата                          : Advanced Simple@L5
Параметр BVOP формата                    : 1
Параметр QPel формата                    : Нет
Параметр GMC формата                     : Без точки перехода
Параметр матрицы формата                 : Default (MPEG)
Идентификатор кодека                     : XVID
Идентификатор кодека/Подсказка           : XviD
Продолжительность                        : 48 м.
Битрейт                                  : 1800 Кбит/сек
Ширина                                   : 720 пикселей
Высота                                   : 400 пикселей
Соотношение сторон                       : 16:9
Частота кадров                           : 25,000 кадров/сек
Цветовое пространство                    : YUV
Субдискретизация насыщенности            : 4:2:0
Битовая глубина                          : 8 бит
Тип развёртки                            : Прогрессивная
Метод сжатия                             : С потерями
Бит/(Пиксели*Кадры)                      : 0.250
Размер потока                            : 625 Мбайт (90%)
Библиотека кодирования                   : XviD 73
Аудио
Идентификатор                            : 1
Формат                                   : AC-3
Формат/Информация                        : Audio Coding 3
Расширение режима                        : CM (complete main)
Параметр Endianness формата              : Big
Идентификатор кодека                     : 2000
Продолжительность                        : 48 м.
Вид битрейта                             : Постоянный
Битрейт                                  : 192 Кбит/сек
Каналы                                   : 2 канала
Расположение каналов                     : Front: L R
Частота                                  : 48,0 КГц
Частота кадров                           : 31,250 кадров/сек (1536 spf)
Метод сжатия                             : С потерями
Размер потока                            : 66,6 Мбайт (10%)
Выравнивание                             : Разделение по промежуткам
Продолжительность промежутка             : 40  мс. (1,00 видеокадр)
Время предзагрузки промежутка            : 500  мс.
-Скриншоты:


Смотреть онлайн

[trackeroc.ru].12687.torrent 
Торрент: Зарегистрирован   [ 2016-05-15 04:52 ]

Скачать торрент

45 KB

Статус: проверено
Скачан: 32 раз
Размер: 8.57 GB
 


Admin (15-май-16)
Похожие торренты
Форум Тема Автор Размер
Зарубежные сериалы По волчьим законам / Animal Kingdom (2016) WEB-DLRip (сезон 1, серии 1-3 из 10) Admin 1.86 GB

_________________
[Профиль] [ЛС]
Показать сообщения:    
Ответить на тему

Текущее время: Сегодня 15:32

Часовой пояс: GMT + 4



Вы не можете начинать темы
Вы не можете отвечать на сообщения
Вы не можете редактировать свои сообщения
Вы не можете удалять свои сообщения
Вы не можете голосовать в опросах
Вы не можете прикреплять файлы к сообщениям
Вы можете скачивать файлы