Эйфория / Euphoria / Сезон: 1 / Серии: 1-8 из 8 скачать торрент

Reply to topic

DL-List and Torrent activity [Update пиров]
Size:  6.32 GB   |    Registered:  6 days   |    Completed:  0 times
Seeders:  73  [  0 KB/s  ]   Leechers:  20  [  0 KB/s  ]   Show peers in full details
 
 
 
 
Author Message

Admin ®

Longevity: 3 years 3 months

Posts: 6964

Location: trackeroc.ru


Post 03-Aug-2019 12:13

[Quote]

Эйфория | Euphoria- Год выпуска: 2019
Страна: США
Жанр: Драма
Продолжительность: ~ 00:53:00-Перевод: Профессиональный (многоголосый закадровый) | Novamedia-Режиссёр: Сэм Левинсон, Пиппа Бьянко, Августин Фриззелл, Дженнифер Моррисон-В ролях: Зендея, Мод Апатоу, Ангус Клауд, Эрик Дэйн, Алекса Деми, Джейкоб Элорди, Барби Феррейра, Ника Уильямс, Сторм Рейд, Хантер Шэфер, Элджи Смит, Сидни Свини-Описание: Главные герои которой постигают жизнь через наркотики, секс, травмы и социальные медиа. В центре истории — 17-летняя Ру Беннетт, вернувшаяся в родной дом после лечения в реабилитационной клинике. Не теряя времени, она опять берется за старые привычки — наркотики и тусовки. Однако появление в городе девушки Джулс становится для Ру знаком надежды.-
Качество: WEB-DLRip
Формат: AVI
Видео: XviD, 720x400 (16:9), 23.976 кадров/сек, 1600 Кбит/сек
Аудио Rus: AC3, 48,0 kHz, 2 ch, 192 Кбит/сек | Novamedia
Аудио Eng: AC3, 48,0 kHz, 2 ch, 192 Кбит/сек
Субтитры: Русские (Forced, Full), английские (SDH)
Реклама: Отсутствует-

✘ Релиз ✘

• Спасибо Wilmots за исходник
-

Список серий

01. Pilot
02. Stuntin' Like My Daddy
03. Made You Look
04. Shook Ones Pt. II
05. '03 Bonnie and Clyde
06. The Next Episode
-

MediaInfo

Общее
Полное имя : E:\Euphoria (Season 1) WEB-DLRip\Euphoria.S01E01.WEB-DLRip.RGzsRutracker.[Wentworth_Miller].avi
Формат : AVI
Формат/Информация : Audio Video Interleave
Размер файла : 767 Мбайт
Продолжительность : 53 м. 39 с.
Общий поток : 1998 Кбит/сек
Название фильма : Euphoria 01x01 (Pilot) - Release by Wentworth_Miller
Программа кодирования : VirtualDubMod 1.5.10.3 | www.virtualdub-fr.org || (build 2550/release)
Видео
Идентификатор : 0
Формат : MPEG-4 Visual
Профиль формата : Advanced [email protected]
Настройки формата : BVOP1
Параметр BVOP формата : 1
Параметр QPel формата : Нет
Параметр GMC формата : Без точки перехода
Параметр матрицы формата : Default (MPEG)
Идентификатор кодека : XVID
Идентификатор кодека/Подсказка : XviD
Продолжительность : 53 м. 39 с.
Битрейт : 1600 Кбит/сек
Ширина : 720 пикселей
Высота : 400 пикселей
Соотношение сторон : 16:9
Частота кадров : 23,976 (24000/1001) кадра/сек
Цветовое пространство : YUV
Субдискретизация насыщенности : 4:2:0
Битовая глубина : 8 бит
Тип развёртки : Прогрессивная
Метод сжатия : С потерями
Бит/(Пиксели*Кадры) : 0.232
Размер потока : 614 Мбайт (80%)
Библиотека кодирования : XviD 67
Аудио #1
Идентификатор : 1
Формат : AC-3
Формат/Информация : Audio Coding 3
Коммерческое название : Dolby Digital
Идентификатор кодека : 2000
Продолжительность : 53 м. 39 с.
Вид битрейта : Постоянный
Битрейт : 192 Кбит/сек
Каналы : 2 канала
ChannelLayout : L R
Частота : 48,0 КГц
Частота кадров : 31,250 кадров/сек (1536 SPF)
Битовая глубина : 16 бит
Метод сжатия : С потерями
Размер потока : 73,7 Мбайт (10%)
Выравнивание : Разделение по промежуткам
Продолжительность промежутка : 42 мс. (1,00 видеокадр)
Время предзагрузки промежутка : 500 мс.
ServiceKind/String : Complete Main
Аудио #2
Идентификатор : 2
Формат : AC-3
Формат/Информация : Audio Coding 3
Коммерческое название : Dolby Digital
Идентификатор кодека : 2000
Продолжительность : 53 м. 39 с.
Вид битрейта : Постоянный
Битрейт : 192 Кбит/сек
Каналы : 2 канала
ChannelLayout : L R
Частота : 48,0 КГц
Частота кадров : 31,250 кадров/сек (1536 SPF)
Битовая глубина : 16 бит
Метод сжатия : С потерями
Размер потока : 73,7 Мбайт (10%)
Выравнивание : Разделение по промежуткам
Продолжительность промежутка : 42 мс. (1,00 видеокадр)
Время предзагрузки промежутка : 500 мс.
ServiceKind/String : Complete Main
-

Скриншоты

-

Внимание! Раздача ведётся путём добавления новых серий

Внимание! Раздача ведётся путём добавления новых серий; при каждом добавлении создаётся новый торрент. Чтобы начать докачку новой серии, пользователям необходимо сделать следующее:
(1) остановить скачивание,
(2) удалить старый торрент у себя из клиента (старые серии удалять не надо),
(3) скачать новый торрент и запустить его у себя в клиенте вместо старого, при этом указать клиенту путь в старую папку куда и должно происходить скачивание новых серий.
Ваш клиент при этом должен произвести хеширование (проверку) старой папки (если не производит сам - помогите ему сделать это), и будет докачивать только те серии которых у вас ещё нет. Старые серии при этом не удаляются, а продолжают раздаваться!
Eсли вы уже удалили старые серии, то предотвратить повторную закачку старых серий можно, отжав галочку в соответствующих местах при запуске нового торрента. По возможности, желательно не удалять старые серии как можно дольше чтобы релизёр не столько продолжал раздавать старые серии, а смог сконцентрироваться на новых.
-


Смотреть онлайн


[trackeroc.info].17819.torrent 
Torrent: Registered   [ 2019-08-17 14:20 ]

Скачать торрент

35 KB

Status: checked
Completed: 3 times
Size: 6.32 GB
 


_________________
[Profile] [PM]
Display posts from previous:    
Reply to topic

The time now is: Today 22:34

All times are GMT + 4 Hours



You cannot post new topics in this forum
You cannot reply to topics in this forum
You cannot edit your posts in this forum
You cannot delete your posts in this forum
You cannot vote in polls in this forum
You cannot attach files in this forum
You can download files in this forum