Екатерина Упит | Обработка фотографий - ВСЁ и сразу (2014) PCRec [H.264/720p]

Ответить на тему

Статистика раздачи [Обновить пиров]
Размер:  3.38 GB   |    Зарегистрирован:  1 год   |    Скачан:  6 раз

Полного источника не было: 5 месяцев 3 дня

 
 
 
 
Автор Сообщение

BiOS ®

Стаж: 2 года 7 месяцев

Сообщений: 1223

Откуда: Raccoon City


Пост 19-Ноя-2015 03:07

[Цитировать]

Екатерина Упит | Обработка фотографий - ВСЁ и сразу - Автор (режиссер): Екатерина Упит
Жанр: Фотография
Описание:
Если Вы хотите быстро совершить качественный рывок и изучить очень интересные методы обработки фото, Вам предлагается самый большой по объему информации пакет on-line курсов по обработке фотографий
Продолжительность: 19:00:00
Качество видео: PCRec
Видео: AVC/H.264, 1280х720, ~161 kbps
Аудио: AAC, 2 ch, 72,0 kbps, VBR

Mediainfo:

Код:
Общее
Формат                                   : MPEG-4
Профиль формата                          : Base Media
Идентификатор кодека                     : isom
Размер файла                             : 214 Мбайт
Продолжительность                        : 2 ч. 6 м.
Режим общего битрейта                    : Переменный
Общий поток                              : 237 Кбит/сек
Дата кодирования                         : UTC 2014-12-23 16:50:35
Дата пометки                             : UTC 2014-12-23 16:50:35
Видео
Идентификатор                            : 1
Формат                                   : AVC
Формат/Информация                        : Advanced Video Codec
Профиль формата                          : Main@L4
Параметр CABAC формата                   : Да
Параметр ReFrames формата                : 6 кадров
Идентификатор кодека                     : avc1
Идентификатор кодека/Информация          : Advanced Video Coding
Продолжительность                        : 2 ч. 6 м.
Битрейт                                  : 161 Кбит/сек
Максимальный битрейт                     : 1670 Кбит/сек
Ширина                                   : 1280 пикселей
Высота                                   : 720 пикселей
Соотношение сторон                       : 16:9
Режим частоты кадров                     : Постоянный
Частота кадров                           : 25,000 кадров/сек
Цветовое пространство                    : YUV
Субдискретизация насыщенности            : 4:2:0
Битовая глубина                          : 8 бит
Тип развёртки                            : Прогрессивная
Бит/(Пиксели*Кадры)                      : 0.007
Размер потока                            : 146 Мбайт (68%)
Библиотека кодирования                   : x264 core 133 r2334 a3ac64b
Настройки программы                      : cabac=1 / ref=6 / deblock=1:0:0 / analyse=0x1:0x111 / me=umh / subme=7 / psy=1 / psy_rd=1.00:0.00 / mixed_ref=1 / me_range=16 / chroma_me=1 / trellis=1 / 8x8dct=0 / cqm=0 / deadzone=21,11 / fast_pskip=1 / chroma_qp_offset=-2 / threads=6 / lookahead_threads=1 / sliced_threads=0 / nr=0 / decimate=1 / interlaced=0 / bluray_compat=0 / constrained_intra=0 / bframes=3 / b_pyramid=2 / b_adapt=1 / b_bias=0 / direct=1 / weightb=1 / open_gop=0 / weightp=2 / keyint=250 / keyint_min=25 / scenecut=40 / intra_refresh=0 / rc_lookahead=60 / rc=crf / mbtree=1 / crf=21.0 / qcomp=0.60 / qpmin=0 / qpmax=69 / qpstep=4 / ip_ratio=1.40 / aq=1:1.00
Дата кодирования                         : UTC 2014-12-23 16:50:35
Дата пометки                             : UTC 2014-12-23 16:50:43
Аудио
Идентификатор                            : 2
Формат                                   : AAC
Формат/Информация                        : Advanced Audio Codec
Профиль формата                          : LC
Идентификатор кодека                     : 40
Продолжительность                        : 2 ч. 6 м.
Вид битрейта                             : Переменный
Битрейт                                  : 72,0 Кбит/сек
Максимальный битрейт                     : 104 Кбит/сек
Каналы                                   : 2 канала
Расположение каналов                     : Front: L R
Частота                                  : 44,1 КГц
Метод сжатия                             : С потерями
Размер потока                            : 65,0 Мбайт (30%)
Дата кодирования                         : UTC 2014-12-23 16:50:42
Дата пометки                             : UTC 2014-12-23 16:50:43

Дополнительная информация:

Состав пакета
1. Волшебные Кривые v2.0
2. Работа с actions, или скорость в действии
3. Цвет и Объём, простые способы
4. ЯРКИЕ ЦВЕТА - четыре простых способа
5. Photoshop это просто - важные тонкости работы
6. Плагины без которых не обойтись фотографу
7. Частотное разложение как метод ретуши
8. 8 Хитростей быстрой работы в Photoshop
-Скриншоты:


[trackeroc.ru].9902.torrent 
Торрент: Зарегистрирован   [ 2015-11-19 03:07 ]

Скачать торрент

20 KB

Статус: проверено
Скачан: 26 раз
Размер: 3.38 GB
 


Admin (19-ноя-15), Commander (19-ноя-15), Angel (20-ноя-15), Dreamka (25-ноя-15)

_________________
[Профиль] [ЛС]
Показать сообщения:    
Ответить на тему

Текущее время: Сегодня 15:33

Часовой пояс: GMT + 4



Вы не можете начинать темы
Вы не можете отвечать на сообщения
Вы не можете редактировать свои сообщения
Вы не можете удалять свои сообщения
Вы не можете голосовать в опросах
Вы не можете прикреплять файлы к сообщениям
Вы можете скачивать файлы