Догма / Dogma (1999) BDRip

Ответить на тему

Статистика раздачи [Обновить пиров]
Размер:  1.47 GB   |    Зарегистрирован:  6 месяцев 20 дней   |    Скачан:  1 раз

Полного источника не было: 5 месяцев 22 дня

 
 
 
 
Автор Сообщение

BiOS ®

Стаж: 2 года 7 месяцев

Сообщений: 1223

Откуда: Raccoon City


Пост 16-Май-2016 15:39

[Цитировать]

Догма / Dogma «Look out Below»- Производство: США / STK, View Askew Productions
Жанр: фэнтези, комедия, приключения
Режиссер: Кевин Смит
Продюсер: Скотт Моужер, Джон Гордон, Лаура Гринли
Актеры: Бен Аффлек, Мэтт Дэймон, Линда Фиорентино, Сальма Хайек, Джейсон Ли, Джейсон Мьюз, Алан Рикман, Крис Рок, Бад Корт, Аланис Морисетт, Джефф Андерсон, Джордж Карлин
Описание:
Два падших ангела, Локи и Бартлби, обреченные вечность торчать в штате Висконсин, узнали, что у них есть шанс вернуться в рай. Для этого нужно всего лишь воспользоваться ошибочной церковной католической догмой, провозглашенной кардиналом-новатором: каждый, прошедший через освященную арку в соборе в Нью-Джерси, получает отпущение грехов. Пройдя через нее, Локи и Бартлби получат прощение, далее им надо стать смертными, умереть и возвратиться в рай.
Есть только одно но. Если это произойдет, то исчезнет все сущее на земле, включая род людской. Помешать этому может только пра-пра… пра-пра племянница Иисуса Христа по имени Вифания, которой помогают тринадцатый апостол Руфус и два смертных пророка, одного из которых играет сам режиссер, а второго — его друг Джейсон Мьюз. К ним присоединяется уже давно живущая на земле Муза по имени Серендипити, подрабатывающая стриптизёршей…
Возраст: 16+ (зрителям, достигшим 16 лет)
Рейтинг MPAA: R (лицам до 17 лет обязательно присутствие взрослого)
Дата мировой премьеры: 21 мая 1999
Дата российской премьеры: 10 февраля 2000, «West»
Релиз на DVD: 23 августа 2000, «Videogram»

Продолжительность: 02:08:11
Качество: BDRip
Перевод: Дублированный, Авторский (Д. Штамп)
Субтитры: Отсутствуют
Видео: XviD, 720x304, (2.35:1), 1 242 kbps, 23.976 fps
Аудио: AC3, 2 ch, 192 kbps - DUB
Аудио: AC3, 2 ch, 192 kbps - AVO

MediaInfo:

Код:
General
Format                      : AVI
Format/Info                 : Audio Video Interleave
File size                   : 1.47 GiB
Duration                    : 2h 8mn
Overall bit rate            : 1 640 Kbps
Director                    : nigoz
Original source form/Distri : BDRemux
Writing application         : VirtualDubMod 1.5.10.2 (build 2540/release)
Writing library             : VirtualDubMod build 2540/release
Copyright                   : torrents.by
Video
ID                          : 0
Format                      : MPEG-4 Visual
Format profile              : Advanced Simple@L5
Format settings, BVOP       : 2
Format settings, QPel       : No
Format settings, GMC        : No warppoints
Format settings, Matrix     : Default (H.263)
Codec ID                    : XVID
Codec ID/Hint               : XviD
Duration                    : 2h 8mn
Bit rate                    : 1 242 Kbps
Width                       : 720 pixels
Height                      : 304 pixels
Display aspect ratio        : 2.35:1
Frame rate                  : 23.976 (23976/1000) fps
Color space                 : YUV
Chroma subsampling          : 4:2:0
Bit depth                   : 8 bits
Scan type                   : Progressive
Compression mode            : Lossy
Bits/(Pixel*Frame)          : 0.237
Stream size                 : 1.11 GiB (76%)
Writing library             : XviD 64
Audio #1
ID                          : 1
Format                      : AC-3
Format/Info                 : Audio Coding 3
Mode extension              : CM (complete main)
Format settings, Endianness : Big
Codec ID                    : 2000
Duration                    : 2h 8mn
Bit rate mode               : Constant
Bit rate                    : 192 Kbps
Channel(s)                  : 2 channels
Channel positions           : Front: L R
Sampling rate               : 48.0 KHz
Frame rate                  : 31.250 fps (1536 spf)
Compression mode            : Lossy
Stream size                 : 176 MiB (12%)
Alignment                   : Split accross interleaves
Interleave, duration        : 42 ms (1.00 video frame)
Interleave, preload duratio : 500 ms
Audio #2
ID                          : 2
Format                      : AC-3
Format/Info                 : Audio Coding 3
Mode extension              : CM (complete main)
Format settings, Endianness : Big
Codec ID                    : 2000
Duration                    : 2h 8mn
Bit rate mode               : Constant
Bit rate                    : 192 Kbps
Channel(s)                  : 2 channels
Channel positions           : Front: L R
Sampling rate               : 48.0 KHz
Frame rate                  : 31.250 fps (1536 spf)
Compression mode            : Lossy
Stream size                 : 176 MiB (12%)
Alignment                   : Split accross interleaves
Interleave, duration        : 42 ms (1.00 video frame)
Interleave, preload duratio : 500 ms
-Скриншоты:


Смотреть онлайн

[trackeroc.ru].12704.torrent 
Торрент: Зарегистрирован   [ 2016-05-16 15:39 ]

Скачать торрент

15 KB

Статус: проверено
Скачан: 29 раз
Размер: 1.47 GB
 


Admin (16-май-16)

_________________
[Профиль] [ЛС]
Показать сообщения:    
Ответить на тему

Текущее время: Сегодня 16:31

Часовой пояс: GMT + 4



Вы не можете начинать темы
Вы не можете отвечать на сообщения
Вы не можете редактировать свои сообщения
Вы не можете удалять свои сообщения
Вы не можете голосовать в опросах
Вы не можете прикреплять файлы к сообщениям
Вы можете скачивать файлы