Дикий Билл / Wild Bill / Сезон: 1 / Серии: 1-6 из 6 скачать торрент

Reply to topic

DL-List and Torrent activity [Update пиров]
Size:  3.67 GB   |    Registered:  20 days   |    Completed:  0 times

Seeder not seen: Never

 
 
 
 
 
Author Message

Admin ®

Longevity: 3 years 3 months

Posts: 6964

Location: trackeroc.ru


Post 03-Aug-2019 09:42

[Quote]

-Дикий Билл / Wild Bill-- -Год выпуска: 2019
Страна: Великобритания
Жанр: драма, криминал, детектив
Продолжительность: ~00:45:00-Перевод: Профессиональный (многоголосый закадровый) HDRezka Studio-Режиссёр: Энни Гриффин, Джон Хардвик, Чарльз Мартин-В ролях: Роб Лоу, Бронвин Джеймс, Энтони Флэнеган, Ти Хёрли, Дивиан Ладва, Алорея Спенсер, Анжли Махиндра, Александр Йованович, Пол Бреннен, Стеффан Родри-Описание: Шеф полиции США Билл Хиксон вынужден переехать в британский городок Линкольншир, со своей 14-летней дочерью Келси в надежде, что они смогут сбежать от болезненного прошлого.- - -Качество: WEB-DLRip / WEB-DL 1080p
Формат: AVI-Видео: XviD, 704x352 (2.000), 24.000 fps, ~1600 kbps avg, 0.269 bit/pixel
Аудио: 48 kHz, AC3 Dolby Digital, 2/0 (L,R) ch, ~192 kbps avg
Субтитры: нет-Реклама: нет-

MediaInfo

Код:
Complete name               : D:\Раздача\Wild Bill (2019) S01\Wild Bill (2019) S01E01 WEB-DLRip_ivanes.avi
Format                      : AVI
Format/Info                 : Audio Video Interleave
File size                   : 624 MiB
Duration                    : 48 min 29 s
Overall bit rate            : 1 800 kb/s
Writing application         : VirtualDubMod 1.5.10.3 (build 2550/release)
Writing library             : VirtualDubMod build 2550/release
Video
ID                          : 0
Format                      : MPEG-4 Visual
Format profile              : Advanced [email protected]
Format settings, BVOP       : 1
Format settings, QPel       : No
Format settings, GMC        : No warppoints
Format settings, Matrix     : Custom
Codec ID                    : XVID
Codec ID/Hint               : XviD
Duration                    : 48 min 29 s
Bit rate                    : 1 599 kb/s
Width                       : 704 pixels
Height                      : 352 pixels
Display aspect ratio        : 2.000
Frame rate                  : 24.000 FPS
Color space                 : YUV
Chroma subsampling          : 4:2:0
Bit depth                   : 8 bits
Scan type                   : Progressive
Compression mode            : Lossy
Bits/(Pixel*Frame)          : 0.269
Stream size                 : 554 MiB (89%)
Writing library             : XviD 67
Audio
ID                          : 1
Format                      : AC-3
Format/Info                 : Audio Coding 3
Format settings, Endianness : Big
Codec ID                    : 2000
Duration                    : 48 min 28 s
Bit rate mode               : Constant
Bit rate                    : 192 kb/s
Channel(s)                  : 2 channels
Channel positions           : Front: L R
Sampling rate               : 48.0 kHz
Frame rate                  : 31.250 FPS (1536 SPF)
Bit depth                   : 16 bits
Compression mode            : Lossy
Stream size                 : 66.6 MiB (11%)
Alignment                   : Split accross interleaves
Interleave, duration        : 42  ms (1.00 video frame)
Interleave, preload duratio : 500  ms
Service kind                : Complete Main

Скриншоты



Смотреть онлайн


[trackeroc.info].17816.torrent 
Torrent: Registered   [ 2019-08-03 09:42 ]

Скачать торрент

19 KB

Status: checked
Completed: 3 times
Size: 3.67 GB
 


_________________
[Profile] [PM]
Display posts from previous:    
Reply to topic

The time now is: Today 22:26

All times are GMT + 4 Hours



You cannot post new topics in this forum
You cannot reply to topics in this forum
You cannot edit your posts in this forum
You cannot delete your posts in this forum
You cannot vote in polls in this forum
You cannot attach files in this forum
You can download files in this forum