Эспен в королевстве троллей / Askeladden I Dovregubbens hall скачать торрент

Ответить на тему

Статистика раздачи [Обновить пиров]
Размер:  1.46 GB   |    Зарегистрирован:  4 месяца 29 дней   |    Скачан:  1 раз

Полного источника не было: Никогда

 
 
 
 
 
Автор Сообщение

Admin ®

Стаж: 2 года

Сообщений: 5109

Откуда: trackeroc.ru


Пост 08-Ноя-2014 15:43

[Цитировать]

Эспен в королевстве троллей / Askeladden - I Dovregubbens hall- Страна: Норвегия
Жанр: Приключения
Год выпуска: 2017
Продолжительность: 01:44:33-Перевод: Профессиональный (дублированный) iTunes
Субтитры: нет-Режиссер: Миккель Бренне Сандемусе / Mikkel Brænne Sandemose-В ролях: Вебьёрн Энгер, Элли Харбоа, Мэдс Сьёгард Петтерсен, Элиас Хольмен Сёренсен, Эллан Хайд, Гискен Арманд, Гард Б. Эйдсвольд, Синневе Макоди Лунд, Торбьорн Харр, Ида Урсин-Хольм-Описание: Сюжет картины посвящен истории сына простого фермера по имени Эспен. Вместе со своими братьями Эспен отправляется на поиски принцессы Кристин (Элли Харбоа), которую похитил мерзкий тролль, известный как Король Горы. Если Эспен с братьями найдет и спасет принцессу, король наградит его кучей денег, что поможет спасти семью от разорения.- / / -Качество видео: WEB-DLRip
Формат видео: AVI
Видео: 720x304 (2.35:1), 24.000 fps, XviD build 73, 1607 Kbps, 0.30 bit/pixel
Аудио: 48 kHz, AC3 Dolby Digital, 3/2 (L,C,R,l,r) + LFE ch, 384 Kbps

MediaInfo

General
Complete name : Downloads\Askeladden.I.Dovregubbens.hall.2017.WEB-DLRip
Format : AVI
Format/Info : Audio Video Interleave
File size : 1.46 GiB
Duration : 1h 44mn
Overall bit rate : 2 000 Kbps
Writing application : VirtualDubMod 1.5.10.2 (build 2540/release)
Writing library : VirtualDubMod build 2540/release
Video #0
ID : 0
Format : MPEG-4 Visual
Format profile : Advanced Simple@L5
Format settings, BVOP : 1
Format settings, QPel : No
Format settings, GMC : No warppoints
Format settings, Matrix : Custom
Codec ID : XVID
Codec ID/Hint : XviD
Duration : 1h 44mn
Bit rate : 1 607 Kbps
Width : 720 pixels
Height : 304 pixels
Display aspect ratio : 2.35:1
Frame rate : 24.000 fps
Color space : YUV
Chroma subsampling : 4:2:0
Bit depth : 8 bits
Scan type : Progressive
Compression mode : Lossy
Bits/(Pixel*Frame) : 0.306
Stream size : 1.17 GiB (80%)
Writing library : XviD 73
Audio #1
ID : 1
Format : AC-3
Format/Info : Audio Coding 3
Mode extension : CM (complete main)
Format settings, Endianness : Big
Codec ID : 2000
Duration : 1h 44mn
Bit rate mode : Constant
Bit rate : 384 Kbps
Channel(s) : 6 channels
Channel positions : Front: L C R, Side: L R, LFE
Sampling rate : 48.0 KHz
Bit depth : 16 bits
Compression mode : Lossy
Stream size : 287 MiB (19%)
Alignment : Split accross interleaves
Interleave, duration : 42 ms (1.00 video frame)
Interleave, preload duration : 500 ms

Скриншот c названием фильма

Скриншоты



Смотреть онлайн

[trackeroc.ru].3877.torrent 
Торрент: Зарегистрирован   [ 2017-12-25 12:57 ]

Скачать торрент

15 KB

Статус: проверено
Скачан: 10 раз
Размер: 1.46 GB
 

Похожие торренты
Форум Тема Автор Размер
Квесты , я ищу , Поиск предметов Hidden Object Сердце тьмы: Легенда о снежном королевстве (2014) (Friday's Games) (ENG+RUS) [L] Admin 725 MB

_________________
[Профиль] [ЛС]
Показать сообщения:    
Ответить на тему

Текущее время: Сегодня 20:59

Часовой пояс: GMT + 4



Вы не можете начинать темы
Вы не можете отвечать на сообщения
Вы не можете редактировать свои сообщения
Вы не можете удалять свои сообщения
Вы не можете голосовать в опросах
Вы не можете прикреплять файлы к сообщениям
Вы можете скачивать файлы