Амнезия / Absentia / Сезон: 2 / Серии: 1-10 из 10 скачать торрент

Reply to topic

DL-List and Torrent activity [Update пиров]
Size:  5.12 GB   |    Registered:  26 days   |    Completed:  0 times

Seeder not seen: Never

 
 
 
 
 
Author Message

Admin ®

Longevity: 3 years 2 months

Posts: 6713

Location: trackeroc.ru


Post 31-May-2019 10:36

[Quote]

Амнезия / Absentia- Год выпуска: 2019
Страна: США
Жанр: Триллер, драма, криминал, детектив
Продолжительность: ~ 00:45:00-Перевод: Профессиональный (многоголосый закадровый) IdeaFilm-Режиссёр: Одед Рускин-В ролях: Стана Катик, Патрик Хьюсингер, Кара Теоболд, Эмбер Агар, Бруно Бичир, Анхель Бунани, Пол Фримен, Ралф Айнесон, Нил Джексон, Патрик МакОли и др.-Описание:
Второй сезон захватывающего сериала "Амнезия" продолжает рассказ об агенте ФБР Эмили Бирн. Главная героиня работала над расследованием сложного дела. Девушка настолько глубоко затянулась, что не могла успокоиться до тех пор, пока не отыщет преступника. Правда, её фанатизм привёл к печальным последствиям. Эмили бросила вызов одному из самых опасных серийных убийц города Бостона, а вскоре и сама попалась в его смертоносные сети. Эмили даже не представляла, чем для неё обернётся встреча с жестоким и опасным убийцей. Бирн буквально исчезает, испаряется на шесть продолжительных лет. Спустя такое продолжительное время агента находят в заброшенном доме. Она совершенно ничего не помнит о том, что с ней приключилось за столь длинный период. Лишь некоторые отрывки памяти беспокоят её. Главная героиня осознаёт, что находилась в плену настоящего психа, который угрожал её жизни, но так и не убил... В чем же загадка? Что же на самом деле произошло за эти долгие шесть лет? Готова ли Эмили вернуться к нормальной жизни после всего случившегося? Готова ли она вновь пережить эти ужасные моменты жизни, вспомнив всё, что с ней случилось за эти годы? Слишком много вопросов, но все ответы зрители получат во втором сезоне.- -Качество: HDTVRip
Формат: AVI
Видео: XviD, 720x400 (16:9), 25,000 fps, ~1500 kbps, 0.20 bit/pixel
Аудио #1: MP3, 48 kHz, 2 ch, 128 kbps | RUS | IdeaFilm
Аудио #2: MP3, 48 kHz, 2 ch, 128 kbps | ENG | Original
Субтитры: Отсутствуют

MediaInfo

Общее
Полное имя : D:\Distributions\Absentia\Absentia.S02E01.HDTVRip.IdeaFilm.avi
Формат : AVI
Формат/Информация : Audio Video Interleave
Размер файла : 513 Мбайт
Продолжительность : 40 м. 31 с.
Общий поток : 1771 Кбит/сек
Программа кодирования : VirtualDubMod 1.5.10.2 (build 2542/release)
Библиотека кодирования : VirtualDubMod build 2542/release
Видео
Идентификатор : 0
Формат : MPEG-4 Visual
Профиль формата : Advanced [email protected]
Настройки формата : BVOP1 / Custom Matrix
Параметр BVOP формата : 1
Параметр QPel формата : Нет
Параметр GMC формата : Без точки перехода
Параметр матрицы формата : Выборочная
Идентификатор кодека : XVID
Идентификатор кодека/Подсказка : XviD
Продолжительность : 40 м. 31 с.
Битрейт : 1500 Кбит/сек
Ширина : 720 пикселей
Высота : 400 пикселей
Соотношение сторон : 16:9
Частота кадров : 25,000 кадров/сек
Цветовое пространство : YUV
Субдискретизация насыщенности : 4:2:0
Битовая глубина : 8 бит
Тип развёртки : Прогрессивная
Метод сжатия : С потерями
Бит/(Пиксели*Кадры) : 0.208
Размер потока : 435 Мбайт (85%)
Библиотека кодирования : XviD 67
Аудио #1
Идентификатор : 1
Формат : MPEG Audio
Версия формата : Version 1
Профиль формата : Layer 3
Настройки формата : Joint stereo / MS Stereo
Идентификатор кодека : 55
Идентификатор кодека/Подсказка : MP3
Продолжительность : 40 м. 31 с.
Вид битрейта : Постоянный
Битрейт : 128 Кбит/сек
Каналы : 2 канала
Частота : 48,0 КГц
Метод сжатия : С потерями
Размер потока : 37,1 Мбайт (7%)
Выравнивание : Разделение по промежуткам
Продолжительность промежутка : 40 мс. (1,00 видеокадр)
Время предзагрузки промежутка : 500 мс.
Аудио #2
Идентификатор : 2
Формат : MPEG Audio
Версия формата : Version 1
Профиль формата : Layer 3
Настройки формата : Joint stereo / MS Stereo
Идентификатор кодека : 55
Идентификатор кодека/Подсказка : MP3
Продолжительность : 40 м. 31 с.
Вид битрейта : Постоянный
Битрейт : 128 Кбит/сек
Каналы : 2 канала
Частота : 48,0 КГц
Метод сжатия : С потерями
Размер потока : 37,1 Мбайт (7%)
Выравнивание : Разделение по промежуткам
Продолжительность промежутка : 40 мс. (1,00 видеокадр)
Время предзагрузки промежутка : 500 мс.

Скриншоты

Раздача ведётся путём добавления новых серий

[font=serif1]Когда раздача ведётся путём добавления новых серий, при каждом добавлении создётся новый торрент. Чтобы начать докачку новой серии, пользователям необходимо сделать следующее:
(1) остановить скачивание,
(2) удалить старый торрент у себя из клиента (старые серии удалять не надо),
(3) скачать новый торрент и запустить его у себя в клиенте вместо старого, при этом указать клиенту путь в старую папку, куда и должно происходить скачивание новых серий.
Ваш клиент при этом должен произвести хеширование (проверку) старой папки (если не производит сам - помогите ему сделать это), и будет докачивать только те серии, которых у вас ещё нет. Старые серии при этом не удаляются, а продолжают раздаваться!
Eсли вы уже удалили старые серии, то предотвратить повторную закачку старых серий можно, отжав галочку в соответсвующих местах при запуске нового торрента. По возможности, желательно не удалять старые серии как можно дольше, чтобы релизёр не столько продолжал раздавать старые серии, а смог сконцентрироваться на новых.


Смотреть онлайн


[trackeroc.org].17541.torrent 
Torrent: Registered   [ 2019-05-31 10:36 ]

Скачать торрент

27 KB

Status: checked
Completed: 5 times
Size: 5.12 GB
 


_________________
[Profile] [PM]
Display posts from previous:    
Reply to topic

The time now is: Today 21:49

All times are GMT + 4 Hours



You cannot post new topics in this forum
You cannot reply to topics in this forum
You cannot edit your posts in this forum
You cannot delete your posts in this forum
You cannot vote in polls in this forum
You cannot attach files in this forum
You can download files in this forum